<?xml version="1.0" standalone="no"?>
<!DOCTYPE svg PUBLIC "-//W3C//DTD SVG 1.1//EN" "http://www.w3.org/Graphics/SVG/1.1/DTD/svg11.dtd" >
<svg xmlns="http://www.w3.org/2000/svg" xmlns:xlink="http://www.w3.org/1999/xlink" version="1.1">
<metadata>
Created by FontForge 20170910 at Thu Sep 22 14:12:42 2016
 By Jimmy Wärting
Copyright (c) 2016 by Atjcloth Studio. All rights reserved.
</metadata>
<defs>
<font id="SimpleTechBold02" horiz-adv-x="1195" >
  <font-face 
    font-family="Simple Tech Bold 02"
    font-weight="1000"
    font-stretch="normal"
    units-per-em="1000"
    panose-1="2 0 5 7 2 0 0 2 0 4"
    ascent="750"
    descent="-250"
    x-height="756"
    cap-height="772"
    bbox="0 -228 1306 870"
    underline-thickness="50"
    underline-position="-100"
    unicode-range="U+000D-2212"
  />
<missing-glyph horiz-adv-x="700" 
 />
    <glyph glyph-name=".notdef" horiz-adv-x="700" 
 />
    <glyph glyph-name="NULL" horiz-adv-x="0" 
 />
    <glyph glyph-name="NULL" horiz-adv-x="0" 
 />
    <glyph glyph-name="CR" unicode="&#xd;" horiz-adv-x="700" 
 />
    <glyph glyph-name="space" unicode=" " horiz-adv-x="700" 
 />
    <glyph glyph-name="five" unicode="5" horiz-adv-x="1197" 
d="M997 634h-847v-251h685c67 0 125 -41 150 -100c8 -19 12 -40 12 -62v-21c0 -89 -73 -162 -162 -162h-785v100h785c34 0 62 28 62 62v21c0 34 -28 62 -62 62h-785v100v351h947v-100zM1034 216c8 -3 13 -9 13 -18c0 -10 -9 -18 -19 -18s-19 8 -19 18c0 9 6 15 13 18v5
c0 25 -5 49 -14 72c-30 69 -98 115 -173 115h-661v202h823h25v149h-997v-87h-13v100h1022v-175h-37h-810v-177h648c80 0 153 -48 184 -122c10 -25 15 -51 15 -77v-5zM835 13c66 0 124 34 157 86h15c-35 -59 -99 -99 -172 -99h-823v175h38h785c14 0 25 11 25 25v21
c0 14 -11 25 -25 25h-823v309c-7 2 -12 9 -12 17c0 11 8 19 19 19c10 0 18 -8 18 -19c0 -8 -5 -15 -12 -17v-297h810c20 0 37 -16 37 -37v-21c0 -21 -17 -38 -37 -38h-785h-25v-149h810z" />
    <glyph glyph-name="six" unicode="6" horiz-adv-x="1194" 
d="M211 635c-34 0 -62 -28 -62 -62v-203c19 8 40 12 62 12h622c89 0 162 -72 162 -161c0 -91 -41 -172 -145 -182v0c-3 -1 -6 -1 -8 -1h-1h-3h-1h-4v0h-622v0c-89 0 -161 72 -161 161v374c0 89 72 161 161 161h784v-99h-784zM211 283c-34 0 -62 -28 -62 -62v-22
c0 -6 1 -12 3 -18c1 -3 2 -6 3 -8c1 -1 1 -1 1 -2c0 0 0 -1 1 -1c1 -2 2 -4 3 -5c2 -3 3 -5 5 -7l6 -6c11 -9 25 -15 40 -15h589h33c34 0 62 28 62 62v22c0 34 -28 62 -62 62h-622zM852 14c66 6 112 39 139 85h14c-29 -53 -79 -90 -151 -98h-1h-9h-1h-4h-1
c-2 -1 -3 -1 -5 -1h-622c-109 0 -199 90 -199 199v355c-7 3 -12 10 -12 18c0 10 8 19 19 19c10 0 18 -9 18 -19c0 -8 -5 -15 -12 -18v-355c0 -102 84 -186 186 -186h622h5h1h3h1c3 0 6 1 9 1v0zM1032 216c7 -3 12 -9 12 -17c0 -11 -8 -19 -19 -19c-10 0 -18 8 -18 19
c0 8 5 15 13 18v4c0 102 -84 186 -187 186h-622c-12 0 -25 -1 -37 -4v170c0 20 17 37 37 37h784h25v149h-809c-66 0 -125 -35 -158 -88h-14c34 60 99 101 172 101h821v-175h-37h-784c-13 0 -25 -11 -25 -24v-155c9 1 17 2 25 2h622c110 0 199 -90 199 -199v-5zM178 183
c-1 2 -2 4 -2 5c-1 4 -2 8 -2 11v22c0 20 17 37 37 37h622c21 0 38 -17 38 -37v-22c0 -20 -17 -37 -38 -37h-622c-9 0 -17 3 -24 9l-3 3c-1 2 -3 3 -4 5c0 1 -1 2 -1 3c-1 0 -1 0 -1 1v0zM186 221v-22c0 -2 1 -4 2 -7c0 -1 0 -2 1 -3v-1v0c1 -1 1 -2 2 -2c0 -1 1 -2 2 -3
s1 -2 2 -2c5 -4 10 -6 16 -6h622c14 0 25 11 25 24v22c0 13 -11 24 -25 24h-622c-13 0 -25 -11 -25 -24z" />
    <glyph glyph-name="seven" unicode="7" horiz-adv-x="1182" 
d="M982 38h-99v539c-3 32 -30 58 -62 58h-784v99h784c89 0 161 -72 161 -161v-535zM1020 216c7 -2 12 -9 12 -17c0 -11 -8 -19 -18 -19c-11 0 -19 8 -19 19c0 8 5 15 12 17v357c0 102 -83 186 -186 186h-809v-88h-12v101h821c109 0 199 -90 199 -199v-357zM1007 13v86h13
v-99h-174v38v268c0 59 1 119 0 178v62v22v6c-1 13 -12 23 -25 23h-615c-2 -7 -9 -12 -17 -12c-11 0 -19 8 -19 19c0 10 8 18 19 18c8 0 15 -5 17 -12h615c19 0 36 -15 37 -35v-6c1 -8 1 -15 1 -23v-62v-178c0 -90 -1 -179 -1 -268v-25h149z" />
    <glyph glyph-name="eight" unicode="8" 
d="M50 221c0 43 17 83 45 112c-28 29 -45 68 -45 112v128c0 88 72 161 161 161h622c89 0 162 -73 162 -161v-128c0 -44 -17 -83 -46 -112c29 -29 46 -69 46 -112v-22c0 -88 -73 -161 -162 -161h-622c-89 0 -161 73 -161 161v22zM149 573v-128c0 -34 28 -62 62 -62h622
c34 0 62 28 62 62v128c0 34 -28 62 -62 62h-622c-34 0 -62 -28 -62 -62zM149 221v-22c0 -34 28 -62 62 -62h622c34 0 62 28 62 62v22c0 34 -28 62 -62 62h-622c-34 0 -62 -28 -62 -62zM833 13c66 0 124 34 157 86h15c-35 -59 -99 -99 -172 -99h-622c-109 0 -199 90 -199 199
v22c0 40 13 79 35 112c-22 33 -35 72 -35 112v109c-7 2 -12 9 -12 17c0 11 8 19 19 19c10 0 18 -8 18 -19c0 -8 -5 -15 -12 -17v-109c0 -41 13 -80 37 -112c-24 -32 -37 -72 -37 -112v-22c0 -102 84 -186 186 -186h622zM1032 216c7 -3 13 -10 13 -18c0 -10 -9 -18 -19 -18
s-19 8 -19 18c0 9 5 15 13 18v5c0 40 -14 80 -38 112c24 32 38 71 38 112v128c0 102 -84 186 -187 186h-622c-66 0 -125 -35 -158 -88h-14c34 60 99 101 172 101h622c110 0 199 -90 199 -199v-128c0 -40 -12 -79 -35 -112c23 -33 35 -72 35 -112v-5zM211 162
c-20 0 -37 17 -37 37v22c0 20 17 37 37 37h622c21 0 38 -17 38 -37v-22c0 -20 -17 -37 -38 -37h-622zM186 221v-22c0 -13 12 -24 25 -24h622c14 0 25 11 25 24v22c0 13 -11 24 -25 24h-622c-13 0 -25 -11 -25 -24zM211 407c-20 0 -37 17 -37 38v128c0 20 17 37 37 37h622
c21 0 38 -17 38 -37v-128c0 -21 -17 -38 -38 -38h-622zM186 573v-128c0 -14 12 -25 25 -25h622c14 0 25 11 25 25v128c0 13 -11 24 -25 24h-622c-13 0 -25 -11 -25 -24z" />
    <glyph glyph-name="nine" unicode="9" 
d="M833 137c34 0 62 28 62 62v84h-684c-89 0 -161 73 -161 162v128c0 88 72 161 161 161h622c89 0 162 -73 162 -161v-374c0 -89 -73 -161 -162 -161h-783v99h783zM833 383c34 0 62 28 62 62v128c0 34 -28 62 -62 62h-622c-34 0 -62 -28 -62 -62v-128c0 -34 28 -62 62 -62
h622zM833 13c66 0 124 34 157 86h15c-35 -59 -99 -99 -172 -99h-821v175h38h783c14 0 25 11 25 24v46c-215 1 -431 1 -647 1c-109 0 -199 89 -199 199v109c-7 2 -12 9 -12 17c0 11 8 19 19 19c10 0 18 -8 18 -19c0 -8 -5 -15 -12 -17v-109c0 -103 84 -187 186 -187h660v-59
c0 -20 -17 -37 -38 -37h-783h-25v-149h808zM1032 216c7 -3 13 -10 13 -18c0 -10 -9 -18 -19 -18s-19 8 -19 18c0 8 6 15 13 18v357c0 102 -84 186 -187 186h-622c-66 0 -125 -35 -158 -88h-15c35 60 100 101 173 101h622c110 0 199 -90 199 -199v-357zM833 610
c21 0 38 -17 38 -37v-128c0 -21 -17 -38 -38 -38h-622c-20 0 -37 17 -37 38v128c0 20 17 37 37 37h622zM858 445v128c0 13 -11 24 -25 24h-622c-13 0 -25 -11 -25 -24v-128c0 -14 12 -25 25 -25h622c14 0 25 11 25 25z" />
    <glyph glyph-name="zero" unicode="0" 
d="M211 162c-20 0 -37 17 -37 37v374c0 20 17 37 37 37h622c21 0 38 -17 38 -37v-374c0 -20 -17 -37 -38 -37h-622zM186 573v-374c0 -13 12 -24 25 -24h622c14 0 25 11 25 24v374c0 13 -11 24 -25 24h-622c-13 0 -25 -11 -25 -24zM833 13c66 0 125 35 158 87h14
c-34 -59 -98 -100 -172 -100h-622c-109 0 -199 90 -199 199v356c-7 3 -12 9 -12 18c0 10 8 18 19 18c10 0 18 -8 18 -18c0 -9 -5 -15 -12 -18v-356c0 -102 84 -186 186 -186h622zM1032 217c7 -3 13 -9 13 -18c0 -10 -9 -18 -19 -18s-19 8 -19 18c0 9 6 15 13 18v356
c0 102 -84 186 -187 186h-622c-66 0 -124 -35 -157 -87h-15c35 59 99 100 172 100h622c110 0 199 -90 199 -199v-356zM211 38c-89 0 -161 73 -161 161v374c0 88 72 161 161 161h622c89 0 162 -73 162 -161v-374c0 -88 -73 -161 -162 -161h-622zM149 573v-374
c0 -34 28 -62 62 -62h622c34 0 62 28 62 62v374c0 34 -28 62 -62 62h-622c-34 0 -62 -28 -62 -62z" />
    <glyph glyph-name="A" unicode="A" 
d="M895 38v245h-746v-245h-99v535c0 89 72 161 161 161h622c89 0 162 -72 162 -161v-535h-100zM149 382h746v191c0 34 -28 62 -62 62h-622c-34 0 -62 -28 -62 -62v-191zM1020 13v87h12v-100h-174v245h-671v-245h-175v555c-7 3 -12 9 -12 18c0 10 8 18 19 18
c10 0 18 -8 18 -18c0 -9 -5 -15 -12 -18v-542h149v245h697v-245h149zM833 610c21 0 38 -17 38 -37v-166h-697v166c0 20 17 37 37 37h622zM187 420h671v153c0 13 -11 24 -25 24h-622c-13 0 -24 -11 -24 -24v-153zM1032 217c7 -2 13 -9 13 -17c0 -11 -9 -19 -19 -19
s-19 8 -19 19c0 8 6 15 13 17v356c0 102 -84 186 -187 186h-622c-66 0 -124 -35 -157 -87h-15c35 59 99 100 172 100h622c110 0 199 -90 199 -199v-356z" />
    <glyph glyph-name="B" unicode="B" 
d="M995 199c0 -89 -72 -161 -162 -161h-783v246v100v350h783c90 0 162 -72 162 -162v-126c0 -43 -17 -83 -45 -112c28 -29 45 -69 45 -112v-23zM149 635v-250h684v0c35 0 63 28 63 62v125c0 35 -28 63 -63 63h-684zM149 285v-148h684c35 0 63 28 63 62v24
c0 34 -28 62 -63 62v0h-684zM1032 219c8 -2 13 -9 13 -17c0 -11 -8 -19 -19 -19c-10 0 -18 8 -18 19c0 8 5 15 12 17v3c0 41 -13 80 -37 112c24 32 37 71 37 112v126c0 103 -84 187 -187 187h-808v-85h-13v98h821c110 0 199 -90 199 -200v-126c0 -40 -12 -79 -34 -112
c22 -33 34 -72 34 -112v-3zM871 199c0 -20 -17 -37 -38 -37h-659v98h659c21 0 38 -17 38 -37v-24zM187 248v-73h646c14 0 25 11 25 24v24c0 13 -11 25 -25 25h-646zM833 13c68 0 127 36 160 89h14c-34 -60 -99 -102 -174 -102h-821v557c-7 3 -12 10 -12 18c0 10 8 19 19 19
c10 0 18 -9 18 -19c0 -8 -5 -15 -12 -18v-544h808zM871 447c0 -21 -17 -38 -38 -38h-659v201h659c21 0 38 -17 38 -38v-125zM187 597v-175h646c14 0 25 11 25 25v125c0 14 -11 25 -25 25h-646z" />
    <glyph glyph-name="C" unicode="C" horiz-adv-x="1182" 
d="M211 635c-34 0 -62 -28 -62 -62v-374c0 -34 28 -62 62 -62h784v-99h-784c-89 0 -161 72 -161 161v374c0 89 72 161 161 161h784v-99h-784zM1020 13v87h12v-100h-821c-109 0 -199 90 -199 199v356c-7 3 -12 10 -12 18c0 10 8 18 19 18c10 0 18 -8 18 -18
c0 -8 -5 -15 -12 -18v-356c0 -102 84 -186 186 -186h809zM211 772h821v-175h-37h-784c-13 0 -25 -11 -25 -24v-374c0 -13 12 -24 25 -24h615c2 7 9 12 17 12c11 0 19 -8 19 -19c0 -10 -8 -18 -19 -18c-8 0 -15 5 -17 12h-615c-20 0 -37 17 -37 37v374c0 20 17 37 37 37h784
h25v149h-809c-66 0 -124 -35 -157 -87h-15c35 60 99 100 172 100z" />
    <glyph glyph-name="D" unicode="D" horiz-adv-x="1182" 
d="M37 535h100v-398h684c34 0 62 28 62 62v374c0 34 -28 62 -62 62h-684v0h-100v99h784c89 0 161 -72 161 -161v-374c0 -89 -72 -161 -161 -161h-784v497zM821 13c66 0 125 35 158 87h14c-34 -59 -99 -100 -172 -100h-821v573h174v-398h647c13 0 25 11 25 24v374
c0 13 -12 24 -25 24h-615c-2 -7 -9 -12 -17 -12c-11 0 -19 8 -19 19c0 10 8 18 19 18c8 0 15 -5 17 -12h615c20 0 37 -17 37 -37v-374c0 -20 -17 -37 -37 -37h-659v398h-150v-547h809zM1020 217c7 -2 12 -9 12 -17c0 -11 -8 -19 -18 -19c-11 0 -19 8 -19 19c0 8 5 15 12 17
v356c0 102 -83 186 -186 186h-809v-87h-12v100h821c109 0 199 -90 199 -199v-356z" />
    <glyph glyph-name="E" unicode="E" horiz-adv-x="1182" 
d="M211 635c-34 0 -62 -28 -62 -62v-190h846v-100h-846v-84c0 -34 28 -62 62 -62h784v-99h-784c-89 0 -161 72 -161 161v374c0 89 72 161 161 161h784v-99h-784zM1020 13v87h12v-100h-821c-109 0 -199 90 -199 199v356c-7 3 -12 10 -12 18c0 10 8 19 19 19
c10 0 18 -9 18 -19c0 -8 -5 -15 -12 -18v-356c0 -102 84 -186 186 -186h809zM211 597c-13 0 -25 -11 -25 -24v-153h846v-174h-846v-47c0 -13 12 -24 25 -24h615c2 7 9 12 17 12c11 0 19 -8 19 -19c0 -10 -8 -18 -19 -18c-8 0 -15 5 -17 12h-615c-20 0 -37 17 -37 37v59h846
v149h-846v166c0 20 17 37 37 37h784h25v149h-809c-66 0 -124 -35 -157 -87h-15c35 60 99 100 172 100h821v-175h-37h-784z" />
    <glyph glyph-name="F" unicode="F" horiz-adv-x="1182" 
d="M211 635c-34 0 -62 -28 -62 -62v-190h846v-100h-846v-245h-99v535c0 89 72 161 161 161h784v-99h-784zM174 13v87h12v-100h-174v555c-7 3 -12 10 -12 18c0 10 8 19 19 19c10 0 18 -9 18 -19c0 -8 -5 -15 -12 -18v-542h149zM211 597c-13 0 -25 -11 -25 -24v-153h846v-174
h-846v-28c8 -3 13 -10 13 -18c0 -10 -8 -19 -19 -19c-10 0 -18 9 -18 19c0 8 5 15 12 18v40h846v150h-846v165c0 20 17 37 37 37h784h25v149h-809c-66 0 -124 -34 -157 -86h-15c35 59 99 99 172 99h821v-175h-37h-784z" />
    <glyph glyph-name="G" unicode="G" 
d="M995 635h-100v0h-684c-34 0 -62 -28 -62 -62v-374c0 -34 28 -62 62 -62h684v146h-375v100h475v-100v-245h-784c-89 0 -161 72 -161 161v374c0 89 72 161 161 161h784v-99zM1020 13v88h12v-101h-821c-109 0 -199 90 -199 199v357c-7 2 -12 9 -12 17c0 10 8 19 19 19
c10 0 18 -9 18 -19c0 -8 -5 -15 -12 -17v-357c0 -102 84 -186 186 -186h809zM1032 218c7 -3 13 -10 13 -18c0 -10 -9 -19 -19 -19s-19 9 -19 19c0 8 6 15 13 18v190h-525v-150h376v-96h-660c-20 0 -37 17 -37 37v374c0 20 17 37 37 37h660v0h149v149h-809
c-66 0 -124 -34 -157 -86h-15c35 59 99 99 172 99h821v-175h-174v0h-647c-13 0 -25 -11 -25 -24v-374c0 -13 12 -24 25 -24h647v71h-375v174h549v-202z" />
    <glyph glyph-name="H" unicode="H" 
d="M50 734h99v-351h746v351h100v-696h-100v245h-746v-245h-99v696zM1020 13v88h12v-101h-174v38v208h-671v-246h-175v556c-7 2 -12 9 -12 17c0 11 8 19 19 19c10 0 18 -8 18 -19c0 -8 -5 -15 -12 -17v-543h149v246h696v-221v-25h150zM1032 218c7 -3 13 -10 13 -18
c0 -10 -9 -19 -19 -19s-19 9 -19 19c0 8 6 15 13 18v541h-150v-25c1 -109 1 -217 1 -326h-697v351h-149v-86h-13v99h175v-352h671v314v38h174v-554z" />
    <glyph glyph-name="I" unicode="I" horiz-adv-x="348" 
d="M49 734h99v-696h-99v696zM173 38v63h13v-63v-38h-175v556c-6 3 -11 10 -11 17c0 11 8 19 19 19c10 0 18 -8 18 -19c0 -8 -5 -15 -13 -18v-542h149v25zM186 218c7 -3 12 -10 12 -18c0 -10 -8 -18 -19 -18c-10 0 -18 8 -18 18c0 8 5 15 12 18v516v25h-149v-86h-13v99h175
v-38v-516z" />
    <glyph glyph-name="J" unicode="J" horiz-adv-x="1182" 
d="M821 137c32 0 59 26 62 58v539h99v-535c0 -89 -72 -161 -161 -161h-784v99h784zM821 13c66 0 125 35 158 88h15c-35 -60 -99 -101 -173 -101h-821v175h37h784c13 0 24 10 25 23v6v22v62c1 59 0 119 0 178v90c-7 2 -12 9 -12 17c0 11 8 19 18 19c11 0 19 -8 19 -19
c0 -8 -5 -15 -13 -17c1 -30 1 -60 1 -90v-178v-62c0 -8 0 -15 -1 -23v-6c-1 -20 -18 -35 -37 -35h-784h-25v-149h809zM1020 218c7 -3 12 -10 12 -18c0 -10 -8 -18 -18 -18c-11 0 -19 8 -19 18c0 8 5 15 12 18v541h-149v-25v-61h-12v61v38h174v-554z" />
    <glyph glyph-name="K" unicode="K" horiz-adv-x="1183" 
d="M50 37v697h99v-295l608 295v-106l-469 -245l708 -240v-106h-1l-846 291v-291h-99zM1020 2v98h13v-115l-846 291v-276h-175v556c-7 2 -12 9 -12 17c0 11 8 19 19 19c10 0 18 -8 18 -19c0 -8 -5 -15 -12 -17v-544h149v281zM174 759h-149v-86h-13v98h175v-273l608 296v-188
l-412 -215l527 -179c4 4 9 7 15 7c10 0 18 -9 18 -19s-8 -19 -18 -19c-11 0 -19 9 -19 19h-1l-554 188l431 225v161l-608 -296v281z" />
    <glyph glyph-name="L" unicode="L" horiz-adv-x="1182" 
d="M25 759v-86h-13v99h175v-38c0 -89 -1 -179 -1 -268v-178v-62v-22l1 -6c1 -13 11 -23 24 -23h615c2 7 9 12 17 12c11 0 19 -8 19 -19c0 -10 -8 -18 -19 -18c-8 0 -15 5 -17 12h-615c-19 0 -35 15 -37 35v6c-1 8 0 15 0 23c-1 20 -1 41 -1 62v178c1 90 1 179 1 268v25h-149
zM1020 101h12v-101h-821c-109 0 -199 90 -199 199v357c-7 3 -12 10 -12 18c0 10 8 18 19 18c10 0 18 -8 18 -18c0 -8 -5 -15 -12 -18v-357c0 -102 84 -186 186 -186h809v88zM50 734h99v-539c3 -32 30 -58 62 -58h784v-99h-784c-89 0 -161 72 -161 161v535zM25 759v-86h-13
v99h175v-38c0 -89 -1 -179 -1 -268v-178v-62v-22l1 -6c1 -13 11 -23 24 -23h615c2 7 9 12 17 12c11 0 19 -8 19 -19c0 -10 -8 -18 -19 -18c-8 0 -15 5 -17 12h-615c-19 0 -35 15 -37 35v6c-1 8 0 15 0 23c-1 20 -1 41 -1 62v178c1 90 1 179 1 268v25h-149zM1020 101h12v-101
h-821c-109 0 -199 90 -199 199v357c-7 3 -12 10 -12 18c0 10 8 18 19 18c10 0 18 -8 18 -18c0 -8 -5 -15 -12 -18v-357c0 -102 84 -186 186 -186h809v88zM50 734h99v-539c3 -32 30 -58 62 -58h784v-99h-784c-89 0 -161 72 -161 161v535z" />
    <glyph glyph-name="M" unicode="M" horiz-adv-x="1443" 
d="M1281 217c7 -2 12 -9 12 -17c0 -11 -8 -19 -18 -19c-11 0 -19 8 -19 19c0 8 5 15 12 17v467c0 31 -17 58 -46 69c-28 12 -59 6 -81 -16l-494 -494l-495 494c-21 22 -53 28 -81 16c-28 -11 -46 -38 -46 -69v-12h-13v12c0 36 21 67 54 81c33 13 70 6 95 -19l486 -486
l485 486c25 25 62 32 95 19c33 -14 54 -45 54 -81v-467zM1268 13v87h13v-100h-38h-99h-37v474l-399 -398c-34 -34 -89 -34 -123 0l-399 398v-474h-37h-99h-38v555c-7 3 -12 10 -12 18c0 10 8 18 19 18c10 0 18 -8 18 -18c0 -8 -5 -15 -12 -18v-542h25h99h25v491l420 -419
c29 -30 76 -30 105 0l420 419v-491h25h99h25zM1243 38h-99v526l-462 -462c-20 -19 -51 -19 -71 0l-462 462v-526h-99v646c0 21 11 38 30 46s40 4 55 -10l512 -512l512 512c14 14 35 18 54 10s30 -25 30 -46v-646z" />
    <glyph glyph-name="N" unicode="N" horiz-adv-x="1193" 
d="M149 587v-549h-99v645c0 19 10 35 26 44c17 9 36 8 52 -3l766 -541v551h99v-647c0 -19 -10 -35 -27 -44c-16 -8 -35 -7 -51 4zM1018 87v14h13v-14c0 -32 -18 -62 -47 -77s-64 -12 -90 6l-708 499v-514h-37h-99h-38v554c-7 3 -12 10 -12 18c0 10 8 19 19 19
c10 0 18 -9 18 -19c0 -8 -5 -15 -12 -18v-542h25h99h25v526l727 -512c23 -17 52 -19 77 -6s40 38 40 66zM1031 218c7 -3 12 -9 12 -18c0 -10 -8 -18 -19 -18c-10 0 -18 8 -18 18c0 9 5 15 12 18v541h-25h-99h-25v-528l-727 513c-23 16 -52 18 -77 5s-40 -38 -40 -66v-11h-13
v11c0 33 18 62 47 77s64 13 90 -6l708 -499v517h37h99h38v-554z" />
    <glyph glyph-name="O" unicode="O" 
d="M211 38c-89 0 -161 73 -161 161v374c0 88 72 161 161 161h622c89 0 162 -73 162 -161v-374c0 -88 -73 -161 -162 -161h-622zM149 573v-374c0 -34 28 -62 62 -62h622c34 0 62 28 62 62v374c0 34 -28 62 -62 62h-622c-34 0 -62 -28 -62 -62zM833 13c67 0 126 36 159 89h14
c-34 -61 -99 -102 -173 -102h-622c-109 0 -199 90 -199 199v358c-7 2 -12 9 -12 17c0 11 8 19 19 19c10 0 18 -8 18 -19c0 -8 -5 -15 -12 -17v-358c0 -102 84 -186 186 -186h622zM1032 219c7 -3 13 -10 13 -18c0 -10 -9 -18 -19 -18s-19 8 -19 18c0 8 5 15 13 18v354
c0 102 -84 186 -187 186h-622c-65 0 -123 -34 -156 -85h-15c35 58 99 98 171 98h622c110 0 199 -90 199 -199v-354zM211 162c-20 0 -37 17 -37 37v374c0 20 17 37 37 37h622c21 0 37 -17 37 -37v-374c0 -20 -16 -37 -37 -37h-622zM186 573v-374c0 -13 12 -24 25 -24h622
c14 0 25 11 25 24v374c0 13 -11 24 -25 24h-622c-13 0 -25 -11 -25 -24z" />
    <glyph glyph-name="P" unicode="P" horiz-adv-x="1182" 
d="M833 284h-684v-246h-99v246v450h783c22 0 43 -4 62 -12c59 -25 100 -82 100 -149v-127c0 -67 -41 -125 -100 -149c-19 -8 -40 -13 -62 -13zM149 635v-251h684c34 0 62 28 62 62v127c0 34 -28 62 -62 62h-684zM174 38v63h12v-63v-38h-174v556c-7 3 -12 10 -12 18
c0 10 8 18 19 18c10 0 18 -8 18 -18c0 -8 -5 -15 -12 -18v-543h149v25zM910 756c74 -31 122 -103 122 -183v-127c0 -80 -48 -153 -122 -184c-24 -10 -51 -15 -77 -15h-647v-29c8 -2 13 -9 13 -17c0 -11 -8 -19 -19 -19c-10 0 -18 8 -18 19c0 8 5 15 12 17v42h659
c25 0 49 4 72 14c69 29 115 97 115 172v127c0 75 -46 143 -115 172c-23 9 -47 14 -72 14h-808v-86h-13v99h821c26 0 53 -6 77 -16zM871 446c0 -20 -17 -37 -38 -37h-659v201h659c21 0 38 -17 38 -37v-127zM186 597v-176h647c14 0 25 11 25 25v127c0 13 -11 24 -25 24h-647z
" />
    <glyph glyph-name="Q" unicode="Q" horiz-adv-x="1331" 
d="M995 195c2 -32 29 -58 62 -58h37c27 0 49 -22 49 -49c0 -28 -22 -50 -49 -50h-37c-22 0 -43 4 -62 12s-36 19 -50 33c-29 -28 -69 -45 -112 -45h-622c-89 0 -161 73 -161 161v374c0 88 72 161 161 161h622c89 0 162 -73 162 -161v-374v-4v0zM895 199v374
c0 34 -28 62 -62 62h-622c-34 0 -62 -28 -62 -62v-374c0 -34 28 -62 62 -62h622c34 0 62 28 62 62zM1179 102c1 -5 2 -10 2 -14c0 -48 -39 -88 -87 -88h-37c-26 0 -52 6 -77 16c-12 5 -24 11 -35 19c-33 -22 -72 -35 -112 -35h-622c-109 0 -199 90 -199 199v358
c-7 3 -12 9 -12 18c0 10 8 18 19 18c10 0 18 -8 18 -18c0 -9 -5 -16 -12 -18v-358c0 -102 84 -186 186 -186h622c41 0 80 13 112 37c12 -9 26 -17 40 -23c23 -9 47 -14 72 -14h37c41 0 74 33 74 75c0 4 0 9 -1 14h12zM211 759c-65 0 -123 -34 -156 -85h-15
c35 58 99 98 171 98h622c110 0 199 -90 199 -199v-354c7 -3 13 -9 13 -18c0 -10 -9 -18 -19 -18s-19 8 -19 18c0 9 5 15 13 18v354c0 102 -84 186 -187 186h-622zM833 610c21 0 37 -17 37 -37v-374c0 -20 -16 -37 -37 -37h-622c-20 0 -37 17 -37 37v374c0 20 17 37 37 37
h622zM858 199v374c0 13 -11 24 -25 24h-622c-13 0 -25 -11 -25 -24v-374c0 -13 12 -24 25 -24h622c14 0 25 11 25 24z" />
    <glyph glyph-name="R" unicode="R" horiz-adv-x="1183" 
d="M764 297c-19 -8 -40 -13 -62 -13h-122l415 -141v-105v-1l-718 247h-128v-247v0h-99v247v450h652c22 0 43 -4 62 -12c58 -25 99 -82 99 -150v-126c0 -67 -41 -125 -99 -149zM149 384h553c34 0 62 28 62 62v126c0 35 -28 63 -62 63h-553v-251zM25 759v-86h-13v99h38h652
c26 0 52 -6 76 -16c74 -31 123 -103 123 -184v-126c0 -80 -49 -153 -123 -184c-2 -1 -5 -2 -8 -3l139 -47c3 4 9 7 15 7c10 0 18 -8 18 -19c0 -10 -8 -18 -18 -18c-11 0 -19 8 -19 18h-1l-178 61c17 2 32 6 48 13c69 29 114 96 114 172v126c0 76 -45 144 -114 173
c-23 9 -48 14 -72 14h-652h-25zM739 446c0 -21 -17 -37 -37 -37h-528v201h528c20 0 37 -17 37 -38v-126zM187 597v-176h515c13 0 25 11 25 25v126c0 14 -12 25 -25 25h-515zM1033 101v-116l-762 262h-84v-247h-175v556c-7 3 -12 10 -12 18c0 10 8 18 19 18
c10 0 18 -8 18 -18c0 -8 -5 -15 -12 -18v-544h149v247h99l748 -256l-1 98h13z" />
    <glyph glyph-name="S" unicode="S" 
d="M211 635c-34 0 -62 -28 -62 -62v-127c0 -34 27 -61 61 -62h1h624c21 0 42 -5 60 -13c40 -16 71 -47 87 -87c8 -19 13 -40 13 -62v-23c0 -22 -5 -43 -13 -62c-16 -39 -47 -70 -87 -87c-19 -8 -40 -12 -62 -12h-783v99h783c34 0 62 28 62 62v23c0 34 -27 62 -61 62h-1h-622
h-2c-21 1 -41 5 -60 13c-39 16 -70 48 -87 87c-8 19 -12 40 -12 62v127c0 22 4 43 12 62c17 39 48 70 87 87c19 8 40 12 62 12h784v-99h-784zM905 27c36 15 66 41 87 74h14c-21 -38 -55 -68 -96 -85c-24 -10 -51 -16 -77 -16h-821v175h821c14 0 25 11 25 24v23
c0 13 -11 25 -24 25h-1h-622h-2c-25 0 -51 6 -74 15c-48 21 -87 59 -107 107c-10 25 -16 51 -16 77v110c-7 3 -12 10 -12 18c0 10 8 19 19 19c10 0 18 -9 18 -19c0 -8 -5 -15 -12 -18v-110c0 -25 5 -49 14 -72c19 -45 55 -81 101 -100c22 -9 45 -14 69 -15h2h622h1
c20 0 37 -17 37 -37v-23c0 -20 -17 -37 -38 -37h-808v-149h808c25 0 49 5 72 14zM1032 218c7 -2 13 -9 13 -17c0 -10 -9 -19 -19 -19s-19 9 -19 19c0 8 5 15 13 17v4c0 25 -5 49 -15 72c-19 45 -55 81 -100 100c-22 10 -46 14 -69 15h-625v0c-21 0 -37 17 -37 37v127
c0 20 17 37 37 37h809v149h-809c-24 0 -49 -5 -71 -14c-35 -15 -65 -40 -85 -72h-15c22 37 55 67 95 83c24 10 50 16 76 16h821v-175h-821c-13 0 -25 -11 -25 -24v-127c0 -13 11 -25 25 -25v0h625c25 0 50 -5 74 -15c48 -20 87 -59 107 -107c10 -25 15 -51 15 -77v-4z" />
    <glyph glyph-name="T" unicode="T" horiz-adv-x="1170" 
d="M560 38h-100v597h-423v99h945v-99h-422v-597zM584 13v89h13v-102h-174v597h-217c-2 -7 -9 -12 -17 -12c-11 0 -19 8 -19 19c0 10 8 18 19 18c8 0 15 -5 17 -12h229v-597h149zM1020 597h-423v-378c7 -3 12 -10 12 -18c0 -10 -8 -19 -18 -19c-11 0 -19 9 -19 19
c0 8 5 15 12 18v391h423v149h-25h-945h-25v-85h-12v98h37h945h38v-175z" />
    <glyph glyph-name="U" unicode="U" 
d="M50 734h99v-535c0 -34 28 -62 62 -62h622c34 0 62 28 62 62v535h100v-535c0 -89 -73 -161 -162 -161h-622c-89 0 -161 72 -161 161v535zM833 13c67 0 126 35 159 89h14c-34 -61 -99 -102 -173 -102h-622c-109 0 -199 90 -199 199v358c-7 2 -12 9 -12 17c0 11 8 19 19 19
c10 0 18 -8 18 -19c0 -8 -5 -15 -12 -17v-358c0 -102 84 -186 186 -186h622zM1032 219c7 -3 13 -10 13 -18c0 -10 -9 -19 -19 -19s-19 9 -19 19c0 8 6 15 13 18v540h-149v-25v-535c0 -20 -17 -37 -38 -37h-622c-20 0 -37 17 -37 37v535v25h-149v-85h-13v98h174v-38v-535
c0 -13 12 -24 25 -24h622c14 0 25 11 25 24v535v38h174v-553z" />
    <glyph glyph-name="V" unicode="V" horiz-adv-x="1456" 
d="M653 38c-16 0 -29 6 -39 19l-537 677h127l449 -567l449 567h127l-537 -677c-10 -13 -23 -19 -39 -19zM711 41l49 61h16l-55 -69c-17 -21 -41 -33 -68 -33s-51 12 -68 33l-415 524c-2 -1 -4 -1 -6 -1c-10 0 -18 8 -18 18s8 19 18 19c11 0 19 -9 19 -19c0 -4 -1 -7 -3 -10
l414 -523c15 -18 36 -28 59 -28s44 10 58 28zM1306 772l-444 -560c2 -3 3 -7 3 -10c0 -11 -8 -19 -19 -19c-10 0 -18 8 -18 19c0 10 8 18 18 18c2 0 5 0 6 -1l428 540h-190l-437 -552l-437 552h-190l67 -86h-15l-78 99h222l431 -545l431 545h222z" />
    <glyph glyph-name="W" unicode="W" horiz-adv-x="1443" 
d="M50 734h99v-526l462 462c20 19 51 19 71 0l462 -462v526h99v-646c0 -21 -11 -39 -30 -46c-19 -8 -40 -4 -54 10l-512 512l-512 -512c-15 -14 -36 -18 -55 -10c-19 7 -30 25 -30 46v646zM1281 217c7 -3 12 -9 12 -18c0 -10 -8 -18 -18 -18c-11 0 -19 8 -19 18
c0 9 5 15 12 18v542h-25h-99h-25v-491l-420 419c-29 30 -76 30 -105 0l-420 -419v491h-25h-99h-25v-87h-13v100h38h99h37v-474l399 398c34 34 89 34 123 0l399 -398v474h37h99h38v-555zM1268 88v12h13v-12c0 -36 -21 -67 -54 -81c-33 -13 -70 -6 -95 19l-485 486l-486 -486
c-25 -25 -62 -32 -95 -19c-33 14 -54 45 -54 81v467c-7 2 -12 9 -12 18c0 10 8 18 19 18c10 0 18 -8 18 -18c0 -9 -5 -16 -12 -18v-467c0 -31 18 -58 46 -69c28 -12 60 -6 81 16l495 494l494 -494c22 -22 53 -28 81 -16c29 11 46 38 46 69z" />
    <glyph glyph-name="X" unicode="X" horiz-adv-x="1170" 
d="M596 386l365 -258c23 -16 28 -47 12 -69c-15 -23 -47 -28 -69 -12l-394 278l-394 -278c-23 -16 -54 -11 -70 12c-15 22 -10 53 12 69l366 258l-366 258c-22 16 -27 47 -12 69c16 23 47 28 70 12l394 -278l394 278c22 16 54 11 69 -12c16 -22 11 -53 -12 -69zM1006 102h13
c3 -22 -1 -45 -15 -65c-28 -39 -82 -48 -121 -21l-373 263l-373 -263c-39 -27 -93 -18 -121 21s-18 94 21 122l322 227l-246 173c-3 -2 -7 -3 -11 -3c-10 0 -18 8 -18 19c0 10 8 18 18 18c11 0 19 -8 19 -18c0 -2 0 -4 -1 -5l260 -184l-336 -238c-34 -23 -42 -70 -18 -104
c24 -33 70 -41 104 -17l380 268l380 -268c33 -24 80 -16 104 17c12 18 16 39 12 58zM13 674h-12c-3 21 2 42 15 61c28 39 82 48 121 21l373 -263l373 263c39 27 93 18 121 -21s18 -94 -21 -122l-322 -227l240 -169c3 2 6 3 10 3c11 0 19 -8 19 -18c0 -11 -8 -19 -19 -19
c-10 0 -18 8 -18 19v5l-254 179l337 238c33 23 41 70 18 104c-24 33 -71 41 -104 17l-380 -268l-380 268c-34 24 -80 16 -104 -17c-11 -17 -15 -36 -13 -54z" />
    <glyph glyph-name="Y" unicode="Y" 
d="M833 13c66 0 125 35 158 87h14c-34 -59 -98 -100 -172 -100h-821v175h38h783c13 0 24 10 25 23v2v14v32h-647c-109 0 -199 90 -199 199v110c-7 2 -12 9 -12 18c0 10 8 18 19 18c10 0 18 -8 18 -18c0 -9 -5 -16 -12 -18v-110c0 -102 84 -186 186 -186h659v-45
c0 -5 1 -10 0 -15v-2c-1 -20 -17 -35 -37 -35h-783h-25v-149h808zM1032 217c7 -3 13 -9 13 -18c0 -10 -9 -18 -19 -18s-19 8 -19 18c0 9 5 15 13 18v542h-150v0v0v-25v-326h-659c-20 0 -37 17 -37 37v314h-149v-87h-13v100h174v-327c0 -13 12 -24 25 -24h647v313v37v0v1h174
v-555zM50 734h99v-289c0 -34 28 -62 62 -62h684v351v0v0h100v0v-535c0 -89 -73 -161 -162 -161h-783v99h783c33 0 60 26 62 58c0 0 0 -14 0 89h-684c-89 0 -161 72 -161 161v289z" />
    <glyph glyph-name="Z" unicode="Z" horiz-adv-x="1170" 
d="M198 284c-34 0 -61 -28 -61 -62v-23c0 -34 28 -62 62 -62h783v-99h-783c-22 0 -43 4 -62 12c-39 17 -71 48 -87 87c-8 19 -13 40 -13 62v23c0 22 5 43 13 62c16 40 48 71 87 87c18 8 39 13 60 13h624h1c34 1 61 28 61 62v127c0 34 -28 62 -62 62h-784v99h784
c22 0 43 -4 62 -12c39 -17 71 -48 87 -87c8 -19 12 -40 12 -62v-127c0 -22 -4 -43 -12 -62c-16 -39 -48 -71 -87 -87c-19 -8 -39 -12 -60 -13h-2h-622h-1zM1007 13v89h13v-102h-821c-26 0 -52 6 -77 16c-48 20 -87 59 -107 107c-10 24 -15 50 -15 76v23c0 26 5 52 15 77
c20 48 59 87 107 107c24 10 49 15 74 15h625v0c14 0 25 12 25 25v127c0 13 -12 24 -25 24h-615c-2 -7 -9 -12 -17 -12c-11 0 -19 8 -19 19c0 10 8 18 19 18c8 0 15 -5 17 -12h615c20 0 37 -17 37 -37v-127c0 -20 -16 -37 -36 -37h-1h-624c-24 -1 -48 -5 -70 -15
c-45 -19 -81 -55 -100 -100c-10 -23 -15 -47 -15 -72v-23c0 -24 5 -49 15 -71c19 -46 55 -82 100 -101c23 -9 47 -14 72 -14h808zM1004 649c11 -24 16 -50 16 -76v-127c0 -26 -5 -52 -16 -77c-20 -48 -58 -86 -107 -107c-23 -9 -48 -15 -74 -15h-2h-622h-1
c-13 0 -24 -11 -24 -25v-23c0 -13 11 -24 25 -24h614c3 7 10 12 18 12c10 0 19 -8 19 -19c0 -10 -9 -18 -19 -18c-8 0 -15 5 -18 12h-614c-21 0 -37 17 -37 37v23c0 20 16 37 36 37h1h622h2c24 1 47 6 70 15c45 19 81 55 100 100c9 23 14 47 14 72v127c0 24 -5 49 -14 71
c-19 46 -55 82 -100 101c-23 9 -48 14 -72 14h-809v-85h-12v98h821c26 0 52 -6 76 -16c49 -20 87 -59 107 -107z" />
    <glyph glyph-name="at" unicode="@" horiz-adv-x="952" 
d="M591 13c62 0 117 31 151 78h15c-35 -54 -97 -91 -166 -91h-152v38c0 45 -1 91 -1 137h-87c-89 0 -161 72 -161 161v100c0 89 72 161 161 161h-140c-13 0 -25 -11 -25 -24v-374c0 -13 12 -24 25 -24h203v-175h-203c-109 0 -199 90 -199 199v356c-7 3 -12 10 -12 18
c0 10 8 18 19 18c10 0 18 -8 18 -18c0 -8 -5 -15 -12 -18v-356c0 -102 84 -186 186 -186h190v149h-190c-20 0 -37 17 -37 37v374c0 20 17 37 37 37h380c20 0 37 -17 37 -37v-374c0 -17 -12 -31 -28 -36v273c0 82 -67 149 -149 149h-100c-82 0 -149 -67 -149 -149v-100
c0 -82 67 -149 149 -149h100v0v-149v-25h140zM591 597h-140c89 0 161 -72 161 -161v-248c2 3 3 7 3 11v374c0 13 -11 24 -24 24zM351 436h100v0v-100v0h-100v0v100v0zM438 349v74h-74v-74h74zM790 208c7 -3 12 -10 12 -18c0 -10 -9 -18 -19 -18s-19 8 -19 18c0 9 6 16 13 18
v365c0 102 -84 186 -186 186h-380c-66 0 -124 -35 -157 -87h-15c35 59 99 100 172 100h380c109 0 199 -90 199 -199v-365zM451 560c68 0 124 -56 124 -124v-299h16c34 0 62 28 62 62v374c0 34 -28 62 -62 62h-380c-34 0 -62 -28 -62 -62v-374c0 -34 28 -62 62 -62h166v-99
h-166c-89 0 -161 73 -161 161v374c0 88 72 161 161 161h380c88 0 161 -73 161 -161v-374c0 -88 -73 -161 -161 -161h-115v176c-8 -1 -17 -2 -25 -2h-100c-68 0 -124 56 -124 124v100c0 68 56 124 124 124h100zM476 336v100c0 13 -12 25 -25 25h-100c-13 0 -25 -12 -25 -25
v-100c0 -13 12 -25 25 -25h100c13 0 25 12 25 25z" />
    <glyph glyph-name="exclam" unicode="!" horiz-adv-x="337" 
d="M12 772h175v-573h-175v356c-7 2 -12 9 -12 17c0 11 8 19 19 19c10 0 18 -8 18 -19c0 -8 -5 -15 -12 -17v-343h149v547h-149v-87h-13v100v0zM50 734h99v-497h-99v497v0zM149 137v-99h-99v99h99v0zM92 186c10 0 19 -8 19 -18c0 -11 -9 -19 -19 -19c-8 0 -15 5 -18 13h-49
v-149h149v82h13v-95h-175v175h63c3 6 9 11 17 11v0z" />
    <glyph glyph-name="four" unicode="4" 
d="M50 734h99v-289c0 -34 28 -62 62 -62h684v351h100v-696h-100v245h-684c-89 0 -161 73 -161 162v289zM1020 38v61h12v-61v-38h-174v246h-647c-109 0 -199 89 -199 199v109c-7 3 -12 10 -12 18c0 10 8 19 19 19c10 0 18 -9 18 -19c0 -8 -5 -15 -12 -18v-109
c0 -103 84 -187 186 -187h660v-245h149v25zM1032 217c7 -3 13 -10 13 -18c0 -10 -9 -19 -19 -19s-19 9 -19 19c0 8 6 15 13 18v517v25h-149v-25v-327h-660c-20 0 -37 17 -37 38v289v25h-149v-87h-13v100h174v-38v-289c0 -14 12 -25 25 -25h647v314v38h174v-38v-517z" />
    <glyph glyph-name="quotedbl" unicode="&#x22;" horiz-adv-x="523" 
d="M336 734v-99v-30c0 -57 -44 -105 -100 -111v51c28 5 50 31 50 60v30h-50v99h50h50v0zM19 591c10 0 18 -8 18 -18c0 -9 -5 -15 -12 -18v-89l28 3c69 8 121 67 121 136v154h-149v-87h-12v100h174v-167c0 -75 -58 -140 -133 -148l-41 -5v103c-8 2 -13 9 -13 18
c0 10 8 18 19 18v0zM205 591c10 0 18 -8 18 -18c0 -9 -5 -15 -12 -18v-89l28 3c69 8 122 67 122 136v154h-150v-87h-12v100h174v-167c0 -75 -57 -140 -133 -148l-41 -5v103c-8 2 -13 9 -13 18c0 10 8 18 19 18v0zM149 734v-99v-30c0 -57 -43 -105 -99 -111v51
c28 5 50 31 50 60v30h-50v99h50h49v0z" />
    <glyph glyph-name="numbersign" unicode="#" horiz-adv-x="1159" 
d="M306 585c10 0 19 -8 19 -19c0 -10 -9 -18 -19 -18c-8 0 -15 5 -17 12h-120l-64 -149h134l-21 -50h-135l-64 -149h134l-85 -199h153l86 199h245l-86 -199h153l38 87h13l-42 -100h-181l86 199h-218l-86 -199h-180l85 199h-134l75 175h135l10 24h-134l75 175h120v-1h8
c2 8 9 13 17 13v0zM142 436v0l43 99h135l86 199h99l-86 -199h299l86 199h99l-85 -199h134l-43 -99h-134l-43 -100h134l-43 -99h-134l-86 -199h-99l85 199h-298l-86 -199h-100l86 199h-134l43 99h134l43 100h-135zM376 436v0l-42 -100h298l43 100h-299zM338 672l43 100h181
l-86 -199h217l86 199h181l-86 -199h135l-75 -175h-135l-11 -24h135l-75 -175h-128c-2 -7 -9 -12 -17 -12c-11 0 -19 8 -19 19c0 10 8 18 19 18c8 0 15 -5 17 -12h120l64 149h-134l21 50h135l64 149h-135l86 199h-154l-85 -199h-245l86 199h-154l-37 -87h-14v0zM393 411v0
h244l-21 -50h-245zM401 398l-11 -24h218l10 24h-217v0z" />
    <glyph glyph-name="dollar" unicode="$" horiz-adv-x="952" 
d="M488 597v-177h105c26 0 51 -5 74 -15c49 -20 87 -59 108 -107c10 -24 15 -50 15 -77v-4c7 -3 12 -10 12 -18c0 -10 -8 -18 -18 -18c-11 0 -19 8 -19 18c0 8 5 15 12 18v4c0 25 -4 49 -14 72c-19 45 -55 82 -100 100c-22 10 -46 15 -70 15h-117v201h301v149h-301v100h-150
v-100h-115c-24 0 -49 -4 -71 -14c-36 -15 -65 -40 -86 -72h-14c21 37 55 67 95 83c24 11 50 16 76 16h103v99h174v-99h302v-174h-302v0zM211 634v0c-34 0 -62 -28 -62 -62v-127c0 -34 28 -61 61 -62h1h140v251h-140zM451 634v0v-251h142c21 0 41 -5 60 -12
c39 -17 71 -48 87 -88c8 -19 13 -40 13 -62v-23c0 -22 -5 -43 -13 -62c-16 -39 -48 -70 -87 -87c-19 -8 -40 -12 -62 -12h-140v-100h-100v100h-301v99h301v147h-140h-2c-21 1 -41 5 -60 13c-39 16 -70 48 -87 87c-8 19 -12 40 -12 62v127c0 22 4 43 12 62c17 39 48 71 87 87
c19 8 40 12 62 12h140v100h100v-100h302v-99h-302zM451 283v0v-147h140c34 0 62 28 62 62v23c0 34 -27 62 -61 62h-1h-140zM19 591c10 0 18 -8 18 -18c0 -9 -5 -15 -12 -18v-110c0 -24 5 -49 14 -72c19 -45 55 -81 101 -100c22 -9 45 -14 69 -14h2h115v-98h-301v-149h301
v-100h150v100h115c24 0 49 5 72 14c35 15 66 41 86 74h15c-22 -38 -56 -68 -97 -85c-24 -10 -50 -16 -76 -16h-103v-99h-174v99h-302v175h302v72h-103h-2c-25 0 -51 6 -74 15c-48 21 -87 59 -107 108c-10 24 -16 50 -16 76v110c-7 3 -12 9 -12 18c0 10 8 18 19 18v0z
M326 408v0h-115v0c-20 0 -37 17 -37 37v127c0 20 17 37 37 37h115v-201zM476 259v0h115h1c20 -1 36 -18 36 -38v-23c0 -20 -17 -37 -37 -37h-115v98zM314 420v177h-103c-13 0 -24 -12 -24 -25v-127c0 -13 11 -24 24 -25v0h103v0zM488 246v-72h103c13 0 25 11 25 24v23
c0 14 -11 25 -24 25h-1h-103v0z" />
    <glyph glyph-name="percent" unicode="%" horiz-adv-x="1046" 
d="M215 53l300 696l10 23h181l-23 -53l-300 -696l-10 -23h-180l22 53v0zM249 38v0l300 696h100l-300 -696h-100zM173 683h50c69 0 124 -56 124 -125v-50c0 -68 -55 -124 -124 -124h-50c-68 0 -124 56 -124 124v50c0 69 56 125 124 125v0zM173 583v0c-13 0 -24 -11 -24 -25
v-50c0 -13 11 -24 24 -24h50c14 0 25 11 25 24v50c0 14 -11 25 -25 25h-50zM673 384h49c69 0 125 -56 125 -124v-50c0 -68 -56 -124 -125 -124h-49c-69 0 -125 56 -125 124v50c0 68 56 124 125 124v0zM673 285v0c-14 0 -25 -12 -25 -25v-50c0 -14 11 -25 25 -25h49
c14 0 25 11 25 25v50c0 13 -11 25 -25 25h-49zM884 217c7 -3 12 -10 12 -18c0 -10 -8 -18 -19 -18c-10 0 -18 8 -18 18c0 9 5 16 13 18v43c0 82 -68 149 -150 149h-49c-82 0 -150 -67 -150 -149v-50c0 -82 68 -149 150 -149h49c39 0 74 15 101 39h18
c-30 -32 -72 -52 -119 -52h-49c-89 0 -162 73 -162 162v50c0 89 73 161 162 161h49c89 0 162 -72 162 -161v-43v0zM19 591c10 0 18 -8 18 -19c0 -8 -5 -15 -13 -17v-47c0 -82 67 -149 149 -149h50c82 0 149 67 149 149v50c0 82 -67 149 -149 149h-50c-36 0 -70 -13 -96 -35
h-18c29 29 70 48 114 48h50c89 0 162 -73 162 -162v-50c0 -89 -73 -161 -162 -161h-50c-89 0 -161 72 -161 161v47c-7 3 -12 10 -12 17c0 11 8 19 19 19v0zM226 48v0l-15 -35h154l7 15l300 696l15 35h-154l-6 -15c-100 -232 -201 -464 -301 -696zM173 558v0h50v0v-50v0h-50
v0v50v0zM673 260v0h49v0v-50v0h-49v0v50v0zM186 546v-25h25v25h-25v0zM685 247v-25h25v25h-25v0z" />
    <glyph glyph-name="ampersand" unicode="&#x26;" horiz-adv-x="953" 
d="M212 162c-21 0 -38 17 -38 38v21c0 18 13 33 31 37h7h379c21 0 38 -17 38 -37v-21c0 -21 -17 -38 -38 -38h-379zM187 221v-21c0 -14 11 -25 25 -25h379c14 0 25 11 25 25v21c0 14 -11 25 -25 25c-126 0 -253 -1 -379 -1h-6c-11 -2 -19 -13 -19 -24zM591 13
c63 0 118 31 152 78h15c-35 -55 -97 -91 -167 -91h-379c-110 0 -200 90 -200 200v21c0 40 12 79 35 112c-23 33 -35 71 -35 111v111c-7 3 -12 10 -12 18c0 10 8 18 19 18c10 0 18 -8 18 -18c0 -8 -5 -15 -12 -18v-111c0 -40 13 -79 37 -111c-24 -32 -37 -71 -37 -112v-21
c0 -103 84 -187 187 -187h379zM791 208c7 -3 12 -10 12 -18c0 -10 -9 -18 -19 -18s-19 8 -19 18c0 9 6 16 13 18v250c0 41 -33 75 -75 75c-41 0 -74 -34 -74 -75v-54c-13 2 -25 4 -38 4h-379h-7c-18 3 -31 18 -31 36v128c0 21 17 38 38 38h192c21 0 38 -17 38 -38v-64
c0 -41 33 -75 74 -75s75 33 75 74v0v65c0 103 -84 187 -187 187h-192c-67 0 -125 -35 -158 -87h-15c35 60 99 100 173 100h192c110 0 200 -90 200 -200v-65v0c-1 -48 -40 -86 -88 -86s-87 39 -87 87v64c0 14 -11 25 -25 25h-192c-14 0 -25 -11 -25 -25v-128
c0 -11 8 -21 19 -24h6h379c9 0 17 0 25 -1v39c0 48 39 87 87 87s88 -39 88 -87v-250zM467 508v0v64c0 35 -28 63 -63 63h-192c-35 0 -63 -28 -63 -63v-128c0 -31 24 -57 55 -61h8h379c22 0 43 -5 63 -13v88c0 28 22 50 49 50v0c28 0 50 -22 50 -50v-258
c0 -90 -72 -162 -162 -162h-379c-90 0 -162 72 -162 162v21c0 43 17 83 45 112c-28 29 -45 68 -45 111v128c0 90 72 162 162 162h192c90 0 162 -73 162 -162v-64v0c0 -27 -22 -50 -50 -50c-27 0 -49 23 -49 50zM204 283c-31 -4 -55 -31 -55 -62v-21c0 -35 28 -63 63 -63h379
c35 0 63 28 63 63v21c0 34 -28 62 -63 62c-145 0 -234 -1 -379 -1c-3 0 -6 1 -8 1z" />
    <glyph glyph-name="quotesingle" unicode="'" horiz-adv-x="337" 
d="M12 672v100h175v-167c0 -75 -58 -140 -133 -148l-42 -5v103c-7 2 -12 9 -12 18c0 10 8 18 19 18c10 0 18 -8 18 -18c0 -9 -5 -16 -12 -18v-89l27 3c70 8 122 67 122 136v154h-149v-87h-13v0zM149 734v-99v-30c0 -57 -43 -105 -99 -111v51c28 5 49 31 49 60v30h-49v99h49
h50v0z" />
    <glyph glyph-name="parenleft" unicode="(" horiz-adv-x="411" 
d="M211 870v0h50v-174h-50c-13 0 -24 -11 -24 -25v-454c7 -3 12 -10 12 -18c0 -10 -8 -18 -19 -18c-10 0 -18 8 -18 18c0 8 5 15 12 18v454c0 21 17 38 37 38h38v149h-38c-102 0 -186 -83 -186 -186h-13c1 109 90 198 199 198zM211 833h13v-100h-13c-34 0 -62 -28 -62 -62
v-572c0 -34 28 -62 62 -62h13v-100h-13c-89 0 -161 73 -161 162v572c0 89 72 162 161 162v0zM19 591c10 0 18 -8 18 -18c0 -9 -5 -15 -12 -18v-456c0 -103 84 -187 186 -187h38v150h-38c-20 0 -37 16 -37 37v1h13v-1c0 -14 11 -25 24 -25h50v-174h-50
c-109 0 -199 89 -199 199v456c-7 3 -12 9 -12 18c0 10 8 18 19 18v0z" />
    <glyph glyph-name="parenright" unicode=")" horiz-adv-x="411" 
d="M50 870c109 0 199 -89 199 -199v-454c7 -3 12 -10 12 -18c0 -10 -8 -18 -18 -18c-11 0 -19 8 -19 18c0 8 5 15 12 18v454c0 103 -83 187 -186 187h-38v-149h38c20 0 37 -17 37 -37h-12c-1 13 -12 24 -25 24h-50v174h50v0zM50 833v0c89 0 161 -73 161 -162v-572
c0 -89 -72 -162 -161 -162h-13v100h13c34 0 62 28 62 62v572c0 34 -28 62 -62 62h-13v100h13zM81 591c10 0 19 -8 19 -18c0 -9 -6 -15 -13 -18v-456c0 -21 -17 -37 -37 -37h-38v-150h38c103 0 186 84 186 187v1h13v-1c0 -110 -90 -199 -199 -199h-50v174h50
c13 0 25 11 25 25v456c-8 3 -13 9 -13 18c0 10 9 18 19 18v0z" />
    <glyph glyph-name="asterisk" unicode="*" horiz-adv-x="477" 
d="M231 762l7 7l86 -87l-6 -6h9v-123h-9l6 -7l-86 -86l-7 6v-9h-123v9l-6 -6l-87 86l7 7h-10v2c-7 2 -12 9 -12 17c0 11 8 19 19 19c10 0 18 -8 18 -19c0 -2 0 -5 -1 -7h16l-19 -19l69 -69l19 19v-27h98v27l19 -19l69 69l-19 19h27v98h-27l19 19l-69 69l-19 -19v27h-98v-27
l-19 19l-69 -69l10 -10h-18l-10 10l87 87l6 -7v10h123v-10v0zM194 734v-62l44 44l34 -34l-44 -44h62v-48h-62l44 -44l-34 -34l-44 44v-62h-48v62l-44 -44l-34 34l44 44h-62v48h62l-44 44l34 34l44 -44v62h48v0z" />
    <glyph glyph-name="plus" unicode="+" horiz-adv-x="722" 
d="M373 473h199v-174h-199v-82c7 -3 13 -10 13 -18c0 -10 -9 -18 -19 -18s-19 8 -19 18c0 8 6 15 13 18v94h199v150h-199v199h-68v12h80v-199v0zM336 635v-199h199v-100h-199v-199h-100v199h-199v100h199v199h100v0zM205 591c11 0 19 -8 19 -18c0 -9 -5 -15 -13 -18v-94
h-199v-150h199v-199h68v-12h-80v199h-199v174h199v82c-7 3 -12 9 -12 18c0 10 8 18 18 18v0z" />
    <glyph glyph-name="comma" unicode="," horiz-adv-x="324" 
d="M48 0h-48v174h62c3 7 10 12 18 12c10 0 18 -8 18 -18c0 -11 -8 -19 -18 -19c-8 0 -15 5 -18 12h-50v-149h50v-4c0 -18 -12 -33 -30 -37l-20 -4v-98l28 3c69 8 122 66 122 136v92h12v-92c0 -76 -57 -140 -133 -149l-41 -4v122l30 6c8 2 15 9 18 17v0zM137 137v-100v-29
c0 -58 -44 -105 -100 -111v50c29 6 50 31 50 61v29h-50v100h50h50v0z" />
    <glyph glyph-name="hyphen" unicode="-" horiz-adv-x="747" 
d="M12 298v150c-7 3 -12 10 -12 18c0 10 8 19 19 19c10 0 18 -9 18 -19c0 -8 -5 -15 -12 -18v-138h465v-12h-478v0zM50 335v100h497v-100h-497v0zM585 322c7 -3 12 -10 12 -18c0 -10 -8 -18 -19 -18c-10 0 -18 8 -18 18c0 8 5 15 12 18v138h-25h-440v12h440h38v-150v0z" />
    <glyph glyph-name="period" unicode="." horiz-adv-x="324" 
d="M174 90v-90h-174v175h62c3 7 10 11 18 11c10 0 18 -8 18 -18c0 -11 -8 -19 -18 -19c-9 0 -16 6 -18 13h-50v-149h150v77h12v0zM137 137v-99h-100v99h100v0z" />
    <glyph glyph-name="slash" unicode="/" horiz-adv-x="663" 
d="M22 53l219 506c-4 3 -6 8 -6 13c0 11 8 19 18 19c11 0 19 -8 19 -19c0 -10 -8 -18 -19 -18h-1l-218 -506l-15 -35h154l6 15l31 72h14l-34 -77l-9 -23h-181l22 53v0zM57 38v0l300 696h99l-300 -696h-99zM260 218h1l218 506l15 35h-153l-7 -15l-31 -72h-14l34 77l9 23h181
l-22 -53c-73 -168 -146 -337 -219 -506c4 -3 6 -8 6 -14c0 -10 -8 -18 -18 -18c-11 0 -19 8 -19 18c0 11 8 19 19 19v0z" />
    <glyph glyph-name="colon" unicode=":" horiz-adv-x="337" 
d="M187 90v-90h-175v174h63c3 7 9 12 17 12c11 0 19 -8 19 -19c0 -10 -8 -18 -19 -18c-8 0 -15 5 -18 13h-49v-149h149v77h13v0zM149 137v-99h-99v99h99v0zM149 634v-99h-99v99h99v0zM19 591c10 0 18 -8 18 -18c0 -9 -5 -15 -12 -18v-45h149v149h-67v13h80v-174h-175v57
c-7 3 -12 9 -12 18c0 10 8 18 19 18v0z" />
    <glyph glyph-name="semicolon" unicode=";" horiz-adv-x="337" 
d="M61 0h-49v174h63c3 7 9 12 17 12c11 0 19 -8 19 -19c0 -10 -8 -18 -19 -18c-8 0 -15 5 -18 13h-49v-149h50v-5c0 -17 -13 -33 -30 -36l-20 -4v-99l27 3c70 8 122 67 122 136v92h13v-92c0 -76 -58 -140 -133 -148l-42 -5v123l30 6c9 2 16 8 19 16v0zM149 137v-99v-30
c0 -57 -43 -105 -99 -111v50c28 6 49 31 49 61v30h-49v99h49h50v0zM149 634v-99h-99v99h99v0zM19 591c10 0 18 -8 18 -18c0 -9 -5 -15 -12 -18v-45h149v149h-67v13h80v-174h-175v57c-7 3 -12 9 -12 18c0 10 8 18 19 18v0z" />
    <glyph glyph-name="less" unicode="&#x3c;" horiz-adv-x="780" 
d="M294 386l323 -118v-51c8 -3 13 -10 13 -18c0 -10 -9 -18 -19 -18s-19 8 -19 18c0 8 6 15 13 18v43l-347 126l347 126v158l-116 -42v13l128 47v-184l-323 -118v0zM185 386l395 -144v-105l-543 198v102l543 198v-105l-395 -144v0zM318 591c10 0 19 -8 19 -18
c0 -11 -9 -19 -19 -19c-6 0 -11 3 -14 7l-292 -106v-138l511 -186v-13l-523 191v154l299 109v1c0 10 9 18 19 18v0z" />
    <glyph glyph-name="equal" unicode="=" horiz-adv-x="946" 
d="M12 199v174h38h696h38v-150c7 -2 12 -9 12 -17c0 -11 -8 -19 -18 -19c-11 0 -19 8 -19 19c0 8 5 15 12 17v138h-25h-696h-25v-149h664v-13h-677v0zM50 237v99h696v-99h-696v0zM50 436v99h696v-99h-696v0zM19 585c10 0 18 -8 18 -19c0 -8 -5 -15 -12 -17v-138h746v149h-25
h-639v13h639h38v-175h-772v151c-7 2 -12 9 -12 17c0 11 8 19 19 19v0z" />
    <glyph glyph-name="greater" unicode="&#x3e;" horiz-adv-x="780" 
d="M336 386l-324 118v51c-7 3 -12 9 -12 18c0 10 8 18 19 18c10 0 18 -8 18 -18c0 -9 -5 -15 -12 -18v-42l347 -127l-347 -126v-158l116 42v-13l-129 -47v185l324 117v0zM445 386l-395 144v105l542 -197v-103l-542 -197v105l395 143v0zM312 218c5 0 10 -3 14 -6l291 106v137
l-510 186v13l523 -190v-155l-300 -109v-1c0 -10 -8 -18 -18 -18c-11 0 -19 8 -19 18c0 11 8 19 19 19v0z" />
    <glyph glyph-name="question" unicode="?" horiz-adv-x="939" 
d="M652 722c39 -17 71 -48 87 -87c8 -19 12 -40 12 -62v-127c0 -22 -4 -43 -12 -62c-16 -39 -48 -70 -87 -87c-18 -7 -39 -12 -60 -12h-2h-110h-1c-29 -1 -53 -21 -60 -48h-100c1 17 6 33 12 48c16 39 48 70 87 87c18 8 39 12 60 12h112h1c34 1 61 29 61 62v127
c0 34 -28 62 -62 62h-379c-34 0 -62 -28 -62 -62v-36h-99v36c0 22 4 43 12 62c16 39 48 70 87 87c19 8 40 12 62 12h379c22 0 43 -4 62 -12v0zM19 591c10 0 18 -8 18 -18c0 -8 -5 -15 -12 -18v-42h149v60c0 20 17 37 37 37h379c20 0 37 -17 37 -37v-127
c0 -20 -16 -37 -36 -37h-1h-112c-24 0 -48 -5 -70 -14c-45 -19 -81 -55 -100 -101c-8 -17 -12 -36 -14 -55l-2 -27h147l5 19c3 17 18 29 35 29h1h110h2c24 0 48 5 70 14c45 19 81 55 100 101c9 22 14 47 14 71v127c0 24 -5 49 -14 71c-19 46 -55 82 -100 101
c-23 9 -47 14 -72 14h-379c-24 0 -49 -5 -72 -14c-35 -15 -65 -41 -85 -73h-15c22 38 55 67 96 84c24 10 50 16 76 16h379c26 0 52 -6 76 -16c49 -20 87 -59 107 -107c11 -24 16 -50 16 -76v-127c0 -26 -5 -52 -16 -76c-20 -48 -58 -87 -107 -107c-23 -10 -48 -15 -74 -15
h-2h-110h-1c-11 -1 -21 -9 -23 -20l-7 -29h-171l4 41c2 20 7 40 14 59c21 48 59 87 107 107c24 10 49 15 74 15h113v1c14 0 25 11 25 24v127c0 13 -11 25 -25 25h-379c-13 0 -25 -12 -25 -25v-73h-174v55c-7 3 -12 10 -12 18c0 10 8 18 19 18v0zM361 187c10 0 18 -9 18 -19
s-8 -18 -18 -18c-8 0 -15 5 -18 12h-49v-149h149v78h12v-91h-174v174h62c3 8 10 13 18 13v0zM418 137v-99h-100v99h100v0z" />
    <glyph glyph-name="bracketleft" unicode="[" horiz-adv-x="436" 
d="M187 74v0h99v-174h-274v37v618c-7 3 -12 9 -12 18c0 10 8 18 19 18c10 0 18 -8 18 -18c0 -9 -5 -15 -12 -18v-618v-25h249v150h-100v38h13v-26zM50 833v0h199v-100h-100v-696h100v-100h-199v896zM187 217c7 -3 12 -10 12 -18c0 -10 -8 -18 -19 -18c-10 0 -18 8 -18 18
c0 8 5 15 12 18v492h100v149h-249v-25v-161h-13v161v37h274v-174h-99v-479v0z" />
    <glyph glyph-name="backslash" unicode="\" horiz-adv-x="663" 
d="M491 53v0l22 -53h-181l-9 23c-77 177 -153 354 -229 531h-1c-11 0 -19 8 -19 18c0 11 8 19 19 19c10 0 18 -8 18 -19c0 -5 -2 -10 -6 -13l229 -531l7 -15h153l-15 35l-22 52h13zM456 38h-99l-300 696h99l300 -696v0zM421 218c10 0 18 -8 18 -19c0 -10 -8 -18 -18 -18
c-11 0 -19 8 -19 18c0 6 2 11 6 14l-229 531l-6 15h-154l15 -35l22 -52h-13l-21 47l-22 53h181l9 -23l229 -531h2v0z" />
    <glyph glyph-name="bracketright" unicode="]" horiz-adv-x="436" 
d="M99 74v481c-7 3 -12 9 -12 18c0 10 8 18 19 18c10 0 18 -8 18 -18c0 -9 -5 -15 -12 -18v-493h-100v-150h249v25v163h13v-163v-37h-274v174h99v0zM236 833v-896h-199v100h100v696h-100v100h199v0zM274 217c7 -3 12 -10 12 -18c0 -10 -8 -18 -19 -18c-10 0 -18 8 -18 18
c0 8 5 15 12 18v616v25h-249v-149h100v-37h-13v24h-99v174h274v-37v-616v0z" />
    <glyph glyph-name="asciicircum" unicode="^" horiz-adv-x="614" 
d="M232 477l-48 -130h-184l77 211c-4 3 -7 9 -7 14c0 11 8 19 19 19c10 0 18 -8 18 -19c0 -10 -8 -18 -18 -18v0l-71 -195h158l56 155l56 -155h158l-145 400h-138l-31 -87h-14l37 100h154l155 -425h-184l-48 130v0zM232 586l-74 -202h-105l128 350h102l128 -350h-105
l-74 202v0z" />
    <glyph glyph-name="grave" unicode="`" horiz-adv-x="463" 
d="M0 772h195l118 -274h-127l-38 56h-5c-10 0 -19 8 -19 18c0 11 9 19 19 19s19 -8 19 -19c0 -4 -2 -8 -4 -11l35 -51h101l-108 249h-163l60 -87h-15l-68 100v0zM71 734h99l86 -199h-50l-135 199v0z" />
    <glyph glyph-name="underscore" unicode="_" 
d="M12 -216v150c-7 3 -12 10 -12 18c0 10 8 19 19 19c10 0 18 -9 18 -19c0 -8 -5 -15 -12 -18v-138h913v-12h-926v0zM50 -179v100h945v-100h-945v0zM1033 -192c7 -3 12 -10 12 -18c0 -10 -8 -18 -19 -18c-10 0 -18 8 -18 18c0 8 5 15 12 18v138h-25h-888v12h888h38v-150v0z
" />
    <glyph glyph-name="braceleft" unicode="{" horiz-adv-x="434" 
d="M197 383c7 -14 13 -24 12 -47c1 -40 1 -79 1 -119c7 -3 12 -10 12 -18c0 -10 -8 -18 -18 -18c-11 0 -19 8 -19 18c0 8 5 15 12 18c1 40 0 80 0 119c-1 18 -6 34 -14 47c8 14 13 30 14 47c1 80 0 161 0 240c0 21 17 38 37 38h38v150h-38c-102 0 -185 -84 -186 -186h-13
c1 109 90 198 199 198h50v-174h-50c-13 0 -25 -12 -25 -26c0 -80 2 -160 0 -240c1 -21 -6 -32 -12 -47v0zM149 383c19 -5 22 -21 23 -47v-236c0 -35 28 -63 62 -63h13v-100h-13c-89 0 -161 73 -161 163v234c0 28 -5 44 -24 49c19 5 24 21 24 49v238c0 90 72 163 161 163h13
v-100h-13c-34 0 -62 -28 -62 -63v-239c-1 -27 -4 -43 -23 -48v0zM41 591c11 0 19 -8 19 -18c0 -9 -5 -15 -12 -18v-132c-1 -22 -7 -35 -24 -40c17 -4 23 -17 24 -40v-9v-234c0 -103 83 -188 186 -188h38v150h-38c-20 0 -37 17 -37 38h12c0 -14 12 -25 25 -25h50v-175h-50
c-110 0 -199 90 -199 200v243c0 7 -1 19 -7 24c-8 9 -23 13 -28 16c5 3 22 10 29 16c5 6 6 17 6 24v132c-7 3 -12 9 -12 18c0 10 8 18 18 18v0z" />
    <glyph glyph-name="bar" unicode="|" horiz-adv-x="349" 
d="M50 833h99v-896h-99v896zM174 -88v179h13v-191h-175v655c-7 3 -12 10 -12 18c0 10 8 18 19 18c10 0 18 -8 18 -18c0 -8 -5 -15 -12 -18v-643h149zM187 208c7 -3 12 -10 12 -18c0 -10 -8 -18 -19 -18c-10 0 -18 8 -18 18c0 8 5 15 12 18v650h-149v-186h-13v198h175v-662z
" />
    <glyph glyph-name="braceright" unicode="}" horiz-adv-x="434" 
d="M87 383v0c-6 15 -13 26 -12 47c-1 42 -1 83 -1 125c-7 3 -12 9 -12 18c0 10 8 18 18 18c11 0 19 -8 19 -18c0 -9 -5 -16 -12 -18v-125c1 -17 6 -33 14 -47c-8 -13 -13 -29 -14 -47c-1 -78 0 -158 0 -236c0 -21 -17 -38 -37 -38h-38v-150h38c103 0 186 85 186 188h13
c0 -110 -89 -200 -199 -200h-50v175h50c13 0 25 11 25 25c0 79 -2 157 0 236c-1 23 5 33 12 47zM135 383v0c-19 5 -22 21 -23 48v239c0 35 -28 63 -62 63h-13v100h13c89 0 161 -73 161 -163v-238c0 -28 5 -44 24 -49c-18 -5 -24 -21 -24 -49v-234c0 -90 -72 -163 -161 -163
h-13v100h13c34 0 62 28 62 63v236c1 26 4 42 23 47zM249 217c7 -3 12 -10 12 -18c0 -10 -8 -18 -18 -18c-11 0 -19 8 -19 18c0 8 5 15 12 18v117v9c1 23 7 36 24 40c-17 5 -23 18 -24 40v247c0 103 -83 188 -186 188h-38v-150h38c20 0 36 -16 37 -36h-12
c-1 13 -12 24 -25 24h-50v174h50c110 0 199 -90 199 -200v-247c0 -7 1 -18 6 -24c7 -6 25 -13 29 -16c-5 -3 -20 -7 -28 -16c-6 -5 -7 -17 -7 -24v-126v0z" />
    <glyph glyph-name="asciitilde" unicode="~" horiz-adv-x="946" 
d="M746 336c-232 -199 -464 199 -696 0v100c232 199 464 -199 696 0v-100v0zM19 466c10 0 18 -9 18 -19c0 -8 -5 -15 -12 -18v-147l41 35c105 90 210 44 322 -4c66 -28 138 -59 211 -59c63 0 116 23 164 63l8 8v0h13v-6l-13 -11c-50 -43 -106 -67 -172 -67
c-75 0 -147 32 -216 61c-58 25 -127 56 -191 54c-46 -1 -84 -19 -118 -48l-62 -53v174c-7 3 -12 10 -12 18c0 10 8 19 19 19v0zM784 442c7 -3 12 -10 12 -18c0 -10 -8 -18 -18 -18c-11 0 -19 8 -19 18c0 8 5 15 12 18v48l-41 -35c-105 -91 -210 -44 -322 4
c-66 28 -138 59 -211 59c-32 0 -62 -6 -90 -18v14c28 11 58 16 90 16c75 0 148 -31 216 -60c58 -25 127 -56 192 -54c45 1 83 19 117 48l62 53v-75v0z" />
    <glyph glyph-name="quoteleft" unicode="&#x2018;" horiz-adv-x="337" 
d="M138 627h49v-175h-175v99c-7 2 -12 9 -12 17c0 10 8 19 19 19c10 0 18 -9 18 -19c0 -8 -5 -15 -12 -17v-86h149v149h-50v5c0 17 13 33 30 36l20 4v99l-27 -3c-54 -6 -98 -43 -115 -92v5h-11c18 53 66 92 124 99l42 5v-123l-30 -6c-9 -2 -16 -8 -19 -16v0zM50 490v99v30
c0 57 43 105 99 111v-51c-28 -5 -50 -30 -50 -60v-30h50v-99h-50h-49v0z" />
    <glyph glyph-name="quotedblleft" unicode="&#x201c;" horiz-adv-x="527" 
d="M50 490v99v30c0 57 43 105 99 111v-51c-28 -5 -50 -30 -50 -60v-30h50v-99h-50h-49v0zM19 587c10 0 18 -9 18 -19c0 -8 -5 -15 -12 -17v-86h149v149h-50v5c0 17 13 33 30 36l20 4v99l-27 -3c-52 -6 -95 -41 -113 -87h-13c18 53 66 92 124 99l42 5v-123l-30 -6
c-9 -2 -16 -8 -19 -16h49v-175h-175v99c-7 2 -12 9 -12 17c0 10 8 19 19 19v0zM314 614v0v5c0 17 13 33 30 36l20 4v99l-28 -3c-51 -6 -94 -41 -112 -87h-13c18 53 66 92 124 99l42 5v-123l-30 -6c-9 -2 -16 -8 -19 -16h49v-175h-175v99c-7 2 -12 9 -12 17c0 10 8 19 19 19
c10 0 18 -9 18 -19c0 -8 -5 -15 -12 -17v-86h149v149h-50zM236 490v99v30c0 57 44 105 99 111v-51c-28 -5 -49 -30 -49 -60v-30h49v-99h-49h-50v0z" />
    <glyph glyph-name="quoteright" unicode="&#x2019;" horiz-adv-x="337" 
d="M12 672v100h175v-167c0 -75 -58 -140 -133 -148l-42 -5v103c-7 2 -12 9 -12 18c0 10 8 18 19 18c10 0 18 -8 18 -18c0 -9 -5 -16 -12 -18v-89l27 3c70 8 122 67 122 136v154h-149v-87h-13v0zM149 734v-99v-30c0 -57 -43 -105 -99 -111v51c28 5 49 31 49 60v30h-49v99h49
h50v0z" />
    <glyph glyph-name="quotedblright" unicode="&#x201d;" horiz-adv-x="523" 
d="M336 734v-99v-30c0 -57 -44 -105 -100 -111v51c28 5 50 31 50 60v30h-50v99h50h50v0zM19 591c10 0 18 -8 18 -18c0 -9 -5 -15 -12 -18v-89l28 3c69 8 121 67 121 136v154h-149v-87h-12v100h174v-167c0 -75 -58 -140 -133 -148l-41 -5v103c-8 2 -13 9 -13 18
c0 10 8 18 19 18v0zM205 591c10 0 18 -8 18 -18c0 -9 -5 -15 -12 -18v-89l28 3c69 8 122 67 122 136v154h-150v-87h-12v100h174v-167c0 -75 -57 -140 -133 -148l-41 -5v103c-8 2 -13 9 -13 18c0 10 8 18 19 18v0zM149 734v-99v-30c0 -57 -43 -105 -99 -111v51
c28 5 50 31 50 60v30h-50v99h50h49v0z" />
    <glyph glyph-name="endash" unicode="&#x2013;" horiz-adv-x="747" 
d="M12 298v150c-7 3 -12 10 -12 18c0 10 8 19 19 19c10 0 18 -9 18 -19c0 -8 -5 -15 -12 -18v-138h465v-12h-478v0zM50 335v100h497v-100h-497v0zM585 322c7 -3 12 -10 12 -18c0 -10 -8 -18 -19 -18c-10 0 -18 8 -18 18c0 8 5 15 12 18v138h-25h-440v12h440h38v-150v0z" />
    <glyph glyph-name="emdash" unicode="&#x2014;" 
d="M12 298v150c-7 3 -12 10 -12 18c0 10 8 19 19 19c10 0 18 -9 18 -19c0 -8 -5 -15 -12 -18v-138h913v-12h-926v0zM50 335v100h945v-100h-945v0zM1033 322c7 -3 12 -10 12 -18c0 -10 -8 -18 -19 -18c-10 0 -18 8 -18 18c0 8 5 15 12 18v138h-25h-888v12h888h38v-150v0z" />
    <glyph glyph-name="minus" unicode="&#x2212;" horiz-adv-x="747" 
d="M12 298v150c-7 3 -12 10 -12 18c0 10 8 19 19 19c10 0 18 -9 18 -19c0 -8 -5 -15 -12 -18v-138h465v-12h-478v0zM50 335v100h497v-100h-497v0zM585 322c7 -3 12 -10 12 -18c0 -10 -8 -18 -19 -18c-10 0 -18 8 -18 18c0 8 5 15 12 18v138h-25h-440v12h440h38v-150v0z" />
    <glyph glyph-name="multiply" unicode="&#xd7;" horiz-adv-x="678" 
d="M123 597l141 -141l141 141l70 -70l-141 -141l141 -141l-70 -70l-141 141l-141 -141l-70 70l140 141l-140 141l70 70v0zM473 218c3 0 6 -1 8 -2l29 29l-141 141l141 141l-105 105l-141 -140l-141 140v0v18v0l141 -141l141 141l123 -123l-141 -141l141 -141l-38 -38
c1 -2 2 -5 2 -8c0 -10 -9 -18 -19 -18s-19 8 -19 18c0 11 9 19 19 19v0zM55 591c10 0 18 -8 18 -18c0 -11 -8 -19 -18 -19c-3 0 -6 1 -8 2l-29 -29l140 -141l-140 -141l105 -105l141 140l141 -140v-18l-141 141l-141 -141l-123 123l141 141l-141 141l38 38c-1 2 -2 5 -2 8
c0 10 8 18 19 18v0z" />
    <glyph glyph-name="one" unicode="1" horiz-adv-x="475" 
d="M176 573c0 34 -28 62 -62 62h-77v99h77c89 0 161 -72 161 -161v-535h-99v535zM300 13v87h12v-100h-174v38v517c-7 2 -12 9 -12 17c0 11 8 19 19 19c10 0 18 -8 18 -19c0 -8 -5 -15 -12 -17v-517v-25h149zM312 217c8 -3 13 -10 13 -18c0 -10 -8 -19 -19 -19
c-10 0 -18 9 -18 19c0 8 5 15 12 18v356c0 102 -84 186 -186 186h-102v-87h-12v100h114c109 0 198 -90 198 -199v-356z" />
    <glyph glyph-name="two" unicode="2" horiz-adv-x="1170" 
d="M198 284c-34 0 -61 -28 -61 -62v-23c0 -34 28 -62 62 -62h684h99v-99h-99h-684h-62h-100v161v23c0 22 5 43 13 62c16 40 48 71 87 87c18 8 39 13 60 13h624h1c34 1 61 28 61 62v127c0 34 -28 62 -62 62h-684h-100v99h100h684c22 0 43 -4 62 -12c39 -17 71 -48 87 -87
c8 -19 12 -40 12 -62v-127c0 -22 -4 -43 -12 -62c-16 -39 -48 -71 -87 -87c-19 -8 -39 -12 -60 -13h-2h-622h-1zM1007 13v87h13v-100h-1020v222c0 26 5 52 15 77c20 48 59 87 107 107c24 10 49 15 74 15h625v0c14 0 25 12 25 25v127c0 13 -12 24 -25 24h-615
c-2 -7 -9 -12 -17 -12c-11 0 -19 8 -19 19c0 10 8 18 19 18c8 0 15 -5 17 -12h615c20 0 37 -17 37 -37v-127c0 -20 -16 -37 -36 -37h-1h-624c-24 -1 -48 -5 -70 -15c-45 -19 -81 -55 -100 -100c-10 -23 -15 -47 -15 -72v-209h995zM1004 649c11 -24 16 -50 16 -76v-127
c0 -26 -5 -52 -16 -77c-20 -48 -58 -86 -107 -107c-23 -9 -48 -15 -74 -15h-2h-622h-1c-13 0 -24 -11 -24 -25v-23c0 -13 11 -24 25 -24h614c3 7 10 12 18 12c10 0 19 -8 19 -19c0 -10 -9 -18 -19 -18c-8 0 -15 5 -18 12h-614c-21 0 -37 17 -37 37v23c0 20 16 37 36 37h1
h622h2c24 1 47 6 70 15c45 19 81 55 100 100c9 23 14 47 14 72v127c0 24 -5 49 -14 71c-19 46 -55 82 -100 101c-23 9 -48 14 -72 14h-809v-87h-12v100h821c26 0 52 -6 76 -16c49 -20 87 -59 107 -107z" />
    <glyph glyph-name="three" unicode="3" horiz-adv-x="1182" 
d="M821 137c34 0 62 28 62 62v23c0 34 -28 62 -62 62v0h-784v100h784v0c34 0 62 28 62 62v126c0 35 -28 63 -62 63h-784v99h784c89 0 161 -72 161 -162v-126c0 -43 -17 -83 -45 -112c28 -29 45 -69 45 -112v-23c0 -89 -72 -161 -161 -161h-784v99h784zM821 13
c66 0 124 35 158 87h14c-34 -59 -99 -100 -172 -100h-821v175h37h784c13 0 25 11 25 24v23c0 14 -12 25 -25 25h-784h-37v174h37h784c13 0 25 11 25 25v126c0 14 -12 25 -25 25h-615c-2 -7 -9 -12 -17 -12c-11 0 -19 9 -19 19s8 18 19 18c8 0 15 -5 17 -12h615
c20 0 37 -17 37 -38v-126c0 -21 -17 -37 -37 -37h-784h-25v-150h25h784c20 0 37 -16 37 -37v-23c0 -20 -17 -37 -37 -37h-784h-25v-149h809zM1020 217c7 -2 12 -9 12 -17c0 -11 -8 -19 -18 -19c-11 0 -19 8 -19 19c0 8 5 15 12 17v5c0 41 -13 80 -37 112c24 32 37 71 37 112
v126c0 103 -83 187 -186 187h-809v-87h-12v100h821c109 0 199 -90 199 -200v-126c0 -40 -12 -79 -35 -112c23 -33 35 -72 35 -112v-5z" />
    <glyph glyph-name="a" unicode="a" 
d="M895 38v245h-746v-245h-99v535c0 89 72 161 161 161h622c89 0 162 -72 162 -161v-535h-100zM149 382h746v191c0 34 -28 62 -62 62h-622c-34 0 -62 -28 -62 -62v-191zM1020 13v87h12v-100h-174v245h-671v-245h-175v555c-7 3 -12 9 -12 18c0 10 8 18 19 18
c10 0 18 -8 18 -18c0 -9 -5 -15 -12 -18v-542h149v245h697v-245h149zM833 610c21 0 38 -17 38 -37v-166h-697v166c0 20 17 37 37 37h622zM187 420h671v153c0 13 -11 24 -25 24h-622c-13 0 -24 -11 -24 -24v-153zM1032 217c7 -2 13 -9 13 -17c0 -11 -9 -19 -19 -19
s-19 8 -19 19c0 8 6 15 13 17v356c0 102 -84 186 -187 186h-622c-66 0 -124 -35 -157 -87h-15c35 59 99 100 172 100h622c110 0 199 -90 199 -199v-356z" />
    <glyph glyph-name="b" unicode="b" 
d="M995 199c0 -89 -72 -161 -162 -161h-783v246v100v350h783c90 0 162 -72 162 -162v-126c0 -43 -17 -83 -45 -112c28 -29 45 -69 45 -112v-23zM149 635v-250h684v0c35 0 63 28 63 62v125c0 35 -28 63 -63 63h-684zM149 285v-148h684c35 0 63 28 63 62v24
c0 34 -28 62 -63 62v0h-684zM1032 219c8 -2 13 -9 13 -17c0 -11 -8 -19 -19 -19c-10 0 -18 8 -18 19c0 8 5 15 12 17v3c0 41 -13 80 -37 112c24 32 37 71 37 112v126c0 103 -84 187 -187 187h-808v-85h-13v98h821c110 0 199 -90 199 -200v-126c0 -40 -12 -79 -34 -112
c22 -33 34 -72 34 -112v-3zM871 199c0 -20 -17 -37 -38 -37h-659v98h659c21 0 38 -17 38 -37v-24zM187 248v-73h646c14 0 25 11 25 24v24c0 13 -11 25 -25 25h-646zM833 13c68 0 127 36 160 89h14c-34 -60 -99 -102 -174 -102h-821v557c-7 3 -12 10 -12 18c0 10 8 19 19 19
c10 0 18 -9 18 -19c0 -8 -5 -15 -12 -18v-544h808zM871 447c0 -21 -17 -38 -38 -38h-659v201h659c21 0 38 -17 38 -38v-125zM187 597v-175h646c14 0 25 11 25 25v125c0 14 -11 25 -25 25h-646z" />
    <glyph glyph-name="c" unicode="c" horiz-adv-x="1182" 
d="M211 635c-34 0 -62 -28 -62 -62v-374c0 -34 28 -62 62 -62h784v-99h-784c-89 0 -161 72 -161 161v374c0 89 72 161 161 161h784v-99h-784zM1020 13v87h12v-100h-821c-109 0 -199 90 -199 199v356c-7 3 -12 10 -12 18c0 10 8 18 19 18c10 0 18 -8 18 -18
c0 -8 -5 -15 -12 -18v-356c0 -102 84 -186 186 -186h809zM211 772h821v-175h-37h-784c-13 0 -25 -11 -25 -24v-374c0 -13 12 -24 25 -24h615c2 7 9 12 17 12c11 0 19 -8 19 -19c0 -10 -8 -18 -19 -18c-8 0 -15 5 -17 12h-615c-20 0 -37 17 -37 37v374c0 20 17 37 37 37h784
h25v149h-809c-66 0 -124 -35 -157 -87h-15c35 60 99 100 172 100z" />
    <glyph glyph-name="d" unicode="d" horiz-adv-x="1182" 
d="M37 535h100v-398h684c34 0 62 28 62 62v374c0 34 -28 62 -62 62h-684v0h-100v99h784c89 0 161 -72 161 -161v-374c0 -89 -72 -161 -161 -161h-784v497zM821 13c66 0 125 35 158 87h14c-34 -59 -99 -100 -172 -100h-821v573h174v-398h647c13 0 25 11 25 24v374
c0 13 -12 24 -25 24h-615c-2 -7 -9 -12 -17 -12c-11 0 -19 8 -19 19c0 10 8 18 19 18c8 0 15 -5 17 -12h615c20 0 37 -17 37 -37v-374c0 -20 -17 -37 -37 -37h-659v398h-150v-547h809zM1020 217c7 -2 12 -9 12 -17c0 -11 -8 -19 -18 -19c-11 0 -19 8 -19 19c0 8 5 15 12 17
v356c0 102 -83 186 -186 186h-809v-87h-12v100h821c109 0 199 -90 199 -199v-356z" />
    <glyph glyph-name="e" unicode="e" horiz-adv-x="1182" 
d="M211 635c-34 0 -62 -28 -62 -62v-190h846v-100h-846v-84c0 -34 28 -62 62 -62h784v-99h-784c-89 0 -161 72 -161 161v374c0 89 72 161 161 161h784v-99h-784zM1020 13v87h12v-100h-821c-109 0 -199 90 -199 199v356c-7 3 -12 10 -12 18c0 10 8 19 19 19
c10 0 18 -9 18 -19c0 -8 -5 -15 -12 -18v-356c0 -102 84 -186 186 -186h809zM211 597c-13 0 -25 -11 -25 -24v-153h846v-174h-846v-47c0 -13 12 -24 25 -24h615c2 7 9 12 17 12c11 0 19 -8 19 -19c0 -10 -8 -18 -19 -18c-8 0 -15 5 -17 12h-615c-20 0 -37 17 -37 37v59h846
v149h-846v166c0 20 17 37 37 37h784h25v149h-809c-66 0 -124 -35 -157 -87h-15c35 60 99 100 172 100h821v-175h-37h-784z" />
    <glyph glyph-name="f" unicode="f" horiz-adv-x="1182" 
d="M211 635c-34 0 -62 -28 -62 -62v-190h846v-100h-846v-245h-99v535c0 89 72 161 161 161h784v-99h-784zM174 13v87h12v-100h-174v555c-7 3 -12 10 -12 18c0 10 8 19 19 19c10 0 18 -9 18 -19c0 -8 -5 -15 -12 -18v-542h149zM211 597c-13 0 -25 -11 -25 -24v-153h846v-174
h-846v-28c8 -3 13 -10 13 -18c0 -10 -8 -19 -19 -19c-10 0 -18 9 -18 19c0 8 5 15 12 18v40h846v150h-846v165c0 20 17 37 37 37h784h25v149h-809c-66 0 -124 -34 -157 -86h-15c35 59 99 99 172 99h821v-175h-37h-784z" />
    <glyph glyph-name="g" unicode="g" 
d="M995 635h-100v0h-684c-34 0 -62 -28 -62 -62v-374c0 -34 28 -62 62 -62h684v146h-375v100h475v-100v-245h-784c-89 0 -161 72 -161 161v374c0 89 72 161 161 161h784v-99zM1020 13v88h12v-101h-821c-109 0 -199 90 -199 199v357c-7 2 -12 9 -12 17c0 10 8 19 19 19
c10 0 18 -9 18 -19c0 -8 -5 -15 -12 -17v-357c0 -102 84 -186 186 -186h809zM1032 218c7 -3 13 -10 13 -18c0 -10 -9 -19 -19 -19s-19 9 -19 19c0 8 6 15 13 18v190h-525v-150h376v-96h-660c-20 0 -37 17 -37 37v374c0 20 17 37 37 37h660v0h149v149h-809
c-66 0 -124 -34 -157 -86h-15c35 59 99 99 172 99h821v-175h-174v0h-647c-13 0 -25 -11 -25 -24v-374c0 -13 12 -24 25 -24h647v71h-375v174h549v-202z" />
    <glyph glyph-name="h" unicode="h" 
d="M50 734h99v-351h746v351h100v-696h-100v245h-746v-245h-99v696zM1020 13v88h12v-101h-174v38v208h-671v-246h-175v556c-7 2 -12 9 -12 17c0 11 8 19 19 19c10 0 18 -8 18 -19c0 -8 -5 -15 -12 -17v-543h149v246h696v-221v-25h150zM1032 218c7 -3 13 -10 13 -18
c0 -10 -9 -19 -19 -19s-19 9 -19 19c0 8 6 15 13 18v541h-150v-25c1 -109 1 -217 1 -326h-697v351h-149v-86h-13v99h175v-352h671v314v38h174v-554z" />
    <glyph glyph-name="i" unicode="i" horiz-adv-x="348" 
d="M49 734h99v-696h-99v696zM173 38v63h13v-63v-38h-175v556c-6 3 -11 10 -11 17c0 11 8 19 19 19c10 0 18 -8 18 -19c0 -8 -5 -15 -13 -18v-542h149v25zM186 218c7 -3 12 -10 12 -18c0 -10 -8 -18 -19 -18c-10 0 -18 8 -18 18c0 8 5 15 12 18v516v25h-149v-86h-13v99h175
v-38v-516z" />
    <glyph glyph-name="j" unicode="j" horiz-adv-x="1182" 
d="M821 137c32 0 59 26 62 58v539h99v-535c0 -89 -72 -161 -161 -161h-784v99h784zM821 13c66 0 125 35 158 88h15c-35 -60 -99 -101 -173 -101h-821v175h37h784c13 0 24 10 25 23v6v22v62c1 59 0 119 0 178v90c-7 2 -12 9 -12 17c0 11 8 19 18 19c11 0 19 -8 19 -19
c0 -8 -5 -15 -13 -17c1 -30 1 -60 1 -90v-178v-62c0 -8 0 -15 -1 -23v-6c-1 -20 -18 -35 -37 -35h-784h-25v-149h809zM1020 218c7 -3 12 -10 12 -18c0 -10 -8 -18 -18 -18c-11 0 -19 8 -19 18c0 8 5 15 12 18v541h-149v-25v-61h-12v61v38h174v-554z" />
    <glyph glyph-name="k" unicode="k" horiz-adv-x="1183" 
d="M50 37v697h99v-295l608 295v-106l-469 -245l708 -240v-106h-1l-846 291v-291h-99zM1020 2v98h13v-115l-846 291v-276h-175v556c-7 2 -12 9 -12 17c0 11 8 19 19 19c10 0 18 -8 18 -19c0 -8 -5 -15 -12 -17v-544h149v281zM174 759h-149v-86h-13v98h175v-273l608 296v-188
l-412 -215l527 -179c4 4 9 7 15 7c10 0 18 -9 18 -19s-8 -19 -18 -19c-11 0 -19 9 -19 19h-1l-554 188l431 225v161l-608 -296v281z" />
    <glyph glyph-name="l" unicode="l" horiz-adv-x="1182" 
d="M25 759v-86h-13v99h175v-38c0 -89 -1 -179 -1 -268v-178v-62v-22l1 -6c1 -13 11 -23 24 -23h615c2 7 9 12 17 12c11 0 19 -8 19 -19c0 -10 -8 -18 -19 -18c-8 0 -15 5 -17 12h-615c-19 0 -35 15 -37 35v6c-1 8 0 15 0 23c-1 20 -1 41 -1 62v178c1 90 1 179 1 268v25h-149
zM1020 101h12v-101h-821c-109 0 -199 90 -199 199v357c-7 3 -12 10 -12 18c0 10 8 18 19 18c10 0 18 -8 18 -18c0 -8 -5 -15 -12 -18v-357c0 -102 84 -186 186 -186h809v88zM50 734h99v-539c3 -32 30 -58 62 -58h784v-99h-784c-89 0 -161 72 -161 161v535zM25 759v-86h-13
v99h175v-38c0 -89 -1 -179 -1 -268v-178v-62v-22l1 -6c1 -13 11 -23 24 -23h615c2 7 9 12 17 12c11 0 19 -8 19 -19c0 -10 -8 -18 -19 -18c-8 0 -15 5 -17 12h-615c-19 0 -35 15 -37 35v6c-1 8 0 15 0 23c-1 20 -1 41 -1 62v178c1 90 1 179 1 268v25h-149zM1020 101h12v-101
h-821c-109 0 -199 90 -199 199v357c-7 3 -12 10 -12 18c0 10 8 18 19 18c10 0 18 -8 18 -18c0 -8 -5 -15 -12 -18v-357c0 -102 84 -186 186 -186h809v88zM50 734h99v-539c3 -32 30 -58 62 -58h784v-99h-784c-89 0 -161 72 -161 161v535z" />
    <glyph glyph-name="m" unicode="m" horiz-adv-x="1443" 
d="M1281 217c7 -2 12 -9 12 -17c0 -11 -8 -19 -18 -19c-11 0 -19 8 -19 19c0 8 5 15 12 17v467c0 31 -17 58 -46 69c-28 12 -59 6 -81 -16l-494 -494l-495 494c-21 22 -53 28 -81 16c-28 -11 -46 -38 -46 -69v-12h-13v12c0 36 21 67 54 81c33 13 70 6 95 -19l486 -486
l485 486c25 25 62 32 95 19c33 -14 54 -45 54 -81v-467zM1268 13v87h13v-100h-38h-99h-37v474l-399 -398c-34 -34 -89 -34 -123 0l-399 398v-474h-37h-99h-38v555c-7 3 -12 10 -12 18c0 10 8 18 19 18c10 0 18 -8 18 -18c0 -8 -5 -15 -12 -18v-542h25h99h25v491l420 -419
c29 -30 76 -30 105 0l420 419v-491h25h99h25zM1243 38h-99v526l-462 -462c-20 -19 -51 -19 -71 0l-462 462v-526h-99v646c0 21 11 38 30 46s40 4 55 -10l512 -512l512 512c14 14 35 18 54 10s30 -25 30 -46v-646z" />
    <glyph glyph-name="n" unicode="n" horiz-adv-x="1193" 
d="M149 587v-549h-99v645c0 19 10 35 26 44c17 9 36 8 52 -3l766 -541v551h99v-647c0 -19 -10 -35 -27 -44c-16 -8 -35 -7 -51 4zM1018 87v14h13v-14c0 -32 -18 -62 -47 -77s-64 -12 -90 6l-708 499v-514h-37h-99h-38v554c-7 3 -12 10 -12 18c0 10 8 19 19 19
c10 0 18 -9 18 -19c0 -8 -5 -15 -12 -18v-542h25h99h25v526l727 -512c23 -17 52 -19 77 -6s40 38 40 66zM1031 218c7 -3 12 -9 12 -18c0 -10 -8 -18 -19 -18c-10 0 -18 8 -18 18c0 9 5 15 12 18v541h-25h-99h-25v-528l-727 513c-23 16 -52 18 -77 5s-40 -38 -40 -66v-11h-13
v11c0 33 18 62 47 77s64 13 90 -6l708 -499v517h37h99h38v-554z" />
    <glyph glyph-name="o" unicode="o" 
d="M211 38c-89 0 -161 73 -161 161v374c0 88 72 161 161 161h622c89 0 162 -73 162 -161v-374c0 -88 -73 -161 -162 -161h-622zM149 573v-374c0 -34 28 -62 62 -62h622c34 0 62 28 62 62v374c0 34 -28 62 -62 62h-622c-34 0 -62 -28 -62 -62zM833 13c67 0 126 36 159 89h14
c-34 -61 -99 -102 -173 -102h-622c-109 0 -199 90 -199 199v358c-7 2 -12 9 -12 17c0 11 8 19 19 19c10 0 18 -8 18 -19c0 -8 -5 -15 -12 -17v-358c0 -102 84 -186 186 -186h622zM1032 219c7 -3 13 -10 13 -18c0 -10 -9 -18 -19 -18s-19 8 -19 18c0 8 5 15 13 18v354
c0 102 -84 186 -187 186h-622c-65 0 -123 -34 -156 -85h-15c35 58 99 98 171 98h622c110 0 199 -90 199 -199v-354zM211 162c-20 0 -37 17 -37 37v374c0 20 17 37 37 37h622c21 0 37 -17 37 -37v-374c0 -20 -16 -37 -37 -37h-622zM186 573v-374c0 -13 12 -24 25 -24h622
c14 0 25 11 25 24v374c0 13 -11 24 -25 24h-622c-13 0 -25 -11 -25 -24z" />
    <glyph glyph-name="p" unicode="p" horiz-adv-x="1182" 
d="M833 284h-684v-246h-99v246v450h783c22 0 43 -4 62 -12c59 -25 100 -82 100 -149v-127c0 -67 -41 -125 -100 -149c-19 -8 -40 -13 -62 -13zM149 635v-251h684c34 0 62 28 62 62v127c0 34 -28 62 -62 62h-684zM174 38v63h12v-63v-38h-174v556c-7 3 -12 10 -12 18
c0 10 8 18 19 18c10 0 18 -8 18 -18c0 -8 -5 -15 -12 -18v-543h149v25zM910 756c74 -31 122 -103 122 -183v-127c0 -80 -48 -153 -122 -184c-24 -10 -51 -15 -77 -15h-647v-29c8 -2 13 -9 13 -17c0 -11 -8 -19 -19 -19c-10 0 -18 8 -18 19c0 8 5 15 12 17v42h659
c25 0 49 4 72 14c69 29 115 97 115 172v127c0 75 -46 143 -115 172c-23 9 -47 14 -72 14h-808v-86h-13v99h821c26 0 53 -6 77 -16zM871 446c0 -20 -17 -37 -38 -37h-659v201h659c21 0 38 -17 38 -37v-127zM186 597v-176h647c14 0 25 11 25 25v127c0 13 -11 24 -25 24h-647z
" />
    <glyph glyph-name="q" unicode="q" horiz-adv-x="1331" 
d="M995 195c2 -32 29 -58 62 -58h37c27 0 49 -22 49 -49c0 -28 -22 -50 -49 -50h-37c-22 0 -43 4 -62 12s-36 19 -50 33c-29 -28 -69 -45 -112 -45h-622c-89 0 -161 73 -161 161v374c0 88 72 161 161 161h622c89 0 162 -73 162 -161v-374v-4zM895 199v374
c0 34 -28 62 -62 62h-622c-34 0 -62 -28 -62 -62v-374c0 -34 28 -62 62 -62h622c34 0 62 28 62 62zM1179 102c1 -5 2 -10 2 -14c0 -48 -39 -88 -87 -88h-37c-26 0 -52 6 -77 16c-12 5 -24 11 -35 19c-33 -22 -72 -35 -112 -35h-622c-109 0 -199 90 -199 199v358
c-7 3 -12 9 -12 18c0 10 8 18 19 18c10 0 18 -8 18 -18c0 -9 -5 -16 -12 -18v-358c0 -102 84 -186 186 -186h622c41 0 80 13 112 37c12 -9 26 -17 40 -23c23 -9 47 -14 72 -14h37c41 0 74 33 74 75c0 4 0 9 -1 14h12zM211 759c-65 0 -123 -34 -156 -85h-15
c35 58 99 98 171 98h622c110 0 199 -90 199 -199v-354c7 -3 13 -9 13 -18c0 -10 -9 -18 -19 -18s-19 8 -19 18c0 9 5 15 13 18v354c0 102 -84 186 -187 186h-622zM833 610c21 0 37 -17 37 -37v-374c0 -20 -16 -37 -37 -37h-622c-20 0 -37 17 -37 37v374c0 20 17 37 37 37
h622zM858 199v374c0 13 -11 24 -25 24h-622c-13 0 -25 -11 -25 -24v-374c0 -13 12 -24 25 -24h622c14 0 25 11 25 24z" />
    <glyph glyph-name="r" unicode="r" horiz-adv-x="1183" 
d="M764 297c-19 -8 -40 -13 -62 -13h-122l415 -141v-105v-1l-718 247h-128v-247v0h-99v247v450h652c22 0 43 -4 62 -12c58 -25 99 -82 99 -150v-126c0 -67 -41 -125 -99 -149zM149 384h553c34 0 62 28 62 62v126c0 35 -28 63 -62 63h-553v-251zM25 759v-86h-13v99h38h652
c26 0 52 -6 76 -16c74 -31 123 -103 123 -184v-126c0 -80 -49 -153 -123 -184c-2 -1 -5 -2 -8 -3l139 -47c3 4 9 7 15 7c10 0 18 -8 18 -19c0 -10 -8 -18 -18 -18c-11 0 -19 8 -19 18h-1l-178 61c17 2 32 6 48 13c69 29 114 96 114 172v126c0 76 -45 144 -114 173
c-23 9 -48 14 -72 14h-652h-25zM739 446c0 -21 -17 -37 -37 -37h-528v201h528c20 0 37 -17 37 -38v-126zM187 597v-176h515c13 0 25 11 25 25v126c0 14 -12 25 -25 25h-515zM1033 101v-116l-762 262h-84v-247h-175v556c-7 3 -12 10 -12 18c0 10 8 18 19 18
c10 0 18 -8 18 -18c0 -8 -5 -15 -12 -18v-544h149v247h99l748 -256l-1 98h13z" />
    <glyph glyph-name="s" unicode="s" 
d="M211 635c-34 0 -62 -28 -62 -62v-127c0 -34 27 -61 61 -62h1h624c21 0 42 -5 60 -13c40 -16 71 -47 87 -87c8 -19 13 -40 13 -62v-23c0 -22 -5 -43 -13 -62c-16 -39 -47 -70 -87 -87c-19 -8 -40 -12 -62 -12h-783v99h783c34 0 62 28 62 62v23c0 34 -27 62 -61 62h-1h-622
h-2c-21 1 -41 5 -60 13c-39 16 -70 48 -87 87c-8 19 -12 40 -12 62v127c0 22 4 43 12 62c17 39 48 70 87 87c19 8 40 12 62 12h784v-99h-784zM905 27c36 15 66 41 87 74h14c-21 -38 -55 -68 -96 -85c-24 -10 -51 -16 -77 -16h-821v175h821c14 0 25 11 25 24v23
c0 13 -11 25 -24 25h-1h-622h-2c-25 0 -51 6 -74 15c-48 21 -87 59 -107 107c-10 25 -16 51 -16 77v110c-7 3 -12 10 -12 18c0 10 8 19 19 19c10 0 18 -9 18 -19c0 -8 -5 -15 -12 -18v-110c0 -25 5 -49 14 -72c19 -45 55 -81 101 -100c22 -9 45 -14 69 -15h2h622h1
c20 0 37 -17 37 -37v-23c0 -20 -17 -37 -38 -37h-808v-149h808c25 0 49 5 72 14zM1032 218c7 -2 13 -9 13 -17c0 -10 -9 -19 -19 -19s-19 9 -19 19c0 8 5 15 13 17v4c0 25 -5 49 -15 72c-19 45 -55 81 -100 100c-22 10 -46 14 -69 15h-625v0c-21 0 -37 17 -37 37v127
c0 20 17 37 37 37h809v149h-809c-24 0 -49 -5 -71 -14c-35 -15 -65 -40 -85 -72h-15c22 37 55 67 95 83c24 10 50 16 76 16h821v-175h-821c-13 0 -25 -11 -25 -24v-127c0 -13 11 -25 25 -25v0h625c25 0 50 -5 74 -15c48 -20 87 -59 107 -107c10 -25 15 -51 15 -77v-4z" />
    <glyph glyph-name="t" unicode="t" horiz-adv-x="1170" 
d="M560 38h-100v597h-423v99h945v-99h-422v-597zM584 13v89h13v-102h-174v597h-217c-2 -7 -9 -12 -17 -12c-11 0 -19 8 -19 19c0 10 8 18 19 18c8 0 15 -5 17 -12h229v-597h149zM1020 597h-423v-378c7 -3 12 -10 12 -18c0 -10 -8 -19 -18 -19c-11 0 -19 9 -19 19
c0 8 5 15 12 18v391h423v149h-25h-945h-25v-85h-12v98h37h945h38v-175z" />
    <glyph glyph-name="u" unicode="u" 
d="M50 734h99v-535c0 -34 28 -62 62 -62h622c34 0 62 28 62 62v535h100v-535c0 -89 -73 -161 -162 -161h-622c-89 0 -161 72 -161 161v535zM833 13c67 0 126 35 159 89h14c-34 -61 -99 -102 -173 -102h-622c-109 0 -199 90 -199 199v358c-7 2 -12 9 -12 17c0 11 8 19 19 19
c10 0 18 -8 18 -19c0 -8 -5 -15 -12 -17v-358c0 -102 84 -186 186 -186h622zM1032 219c7 -3 13 -10 13 -18c0 -10 -9 -19 -19 -19s-19 9 -19 19c0 8 6 15 13 18v540h-149v-25v-535c0 -20 -17 -37 -38 -37h-622c-20 0 -37 17 -37 37v535v25h-149v-85h-13v98h174v-38v-535
c0 -13 12 -24 25 -24h622c14 0 25 11 25 24v535v38h174v-553z" />
    <glyph glyph-name="v" unicode="v" horiz-adv-x="1456" 
d="M653 38c-16 0 -29 6 -39 19l-537 677h127l449 -567l449 567h127l-537 -677c-10 -13 -23 -19 -39 -19zM711 41l49 61h16l-55 -69c-17 -21 -41 -33 -68 -33s-51 12 -68 33l-415 524c-2 -1 -4 -1 -6 -1c-10 0 -18 8 -18 18s8 19 18 19c11 0 19 -9 19 -19c0 -4 -1 -7 -3 -10
l414 -523c15 -18 36 -28 59 -28s44 10 58 28zM1306 772l-444 -560c2 -3 3 -7 3 -10c0 -11 -8 -19 -19 -19c-10 0 -18 8 -18 19c0 10 8 18 18 18c2 0 5 0 6 -1l428 540h-190l-437 -552l-437 552h-190l67 -86h-15l-78 99h222l431 -545l431 545h222z" />
    <glyph glyph-name="w" unicode="w" horiz-adv-x="1443" 
d="M50 734h99v-526l462 462c20 19 51 19 71 0l462 -462v526h99v-646c0 -21 -11 -39 -30 -46c-19 -8 -40 -4 -54 10l-512 512l-512 -512c-15 -14 -36 -18 -55 -10c-19 7 -30 25 -30 46v646zM1281 217c7 -3 12 -9 12 -18c0 -10 -8 -18 -18 -18c-11 0 -19 8 -19 18
c0 9 5 15 12 18v542h-25h-99h-25v-491l-420 419c-29 30 -76 30 -105 0l-420 -419v491h-25h-99h-25v-87h-13v100h38h99h37v-474l399 398c34 34 89 34 123 0l399 -398v474h37h99h38v-555zM1268 88v12h13v-12c0 -36 -21 -67 -54 -81c-33 -13 -70 -6 -95 19l-485 486l-486 -486
c-25 -25 -62 -32 -95 -19c-33 14 -54 45 -54 81v467c-7 2 -12 9 -12 18c0 10 8 18 19 18c10 0 18 -8 18 -18c0 -9 -5 -16 -12 -18v-467c0 -31 18 -58 46 -69c28 -12 60 -6 81 16l495 494l494 -494c22 -22 53 -28 81 -16c29 11 46 38 46 69z" />
    <glyph glyph-name="x" unicode="x" horiz-adv-x="1170" 
d="M596 386l365 -258c23 -16 28 -47 12 -69c-15 -23 -47 -28 -69 -12l-394 278l-394 -278c-23 -16 -54 -11 -70 12c-15 22 -10 53 12 69l366 258l-366 258c-22 16 -27 47 -12 69c16 23 47 28 70 12l394 -278l394 278c22 16 54 11 69 -12c16 -22 11 -53 -12 -69zM1006 102h13
c3 -22 -1 -45 -15 -65c-28 -39 -82 -48 -121 -21l-373 263l-373 -263c-39 -27 -93 -18 -121 21s-18 94 21 122l322 227l-246 173c-3 -2 -7 -3 -11 -3c-10 0 -18 8 -18 19c0 10 8 18 18 18c11 0 19 -8 19 -18c0 -2 0 -4 -1 -5l260 -184l-336 -238c-34 -23 -42 -70 -18 -104
c24 -33 70 -41 104 -17l380 268l380 -268c33 -24 80 -16 104 17c12 18 16 39 12 58zM13 674h-12c-3 21 2 42 15 61c28 39 82 48 121 21l373 -263l373 263c39 27 93 18 121 -21s18 -94 -21 -122l-322 -227l240 -169c3 2 6 3 10 3c11 0 19 -8 19 -18c0 -11 -8 -19 -19 -19
c-10 0 -18 8 -18 19v5l-254 179l337 238c33 23 41 70 18 104c-24 33 -71 41 -104 17l-380 -268l-380 268c-34 24 -80 16 -104 -17c-11 -17 -15 -36 -13 -54z" />
    <glyph glyph-name="y" unicode="y" 
d="M833 13c66 0 125 35 158 87h14c-34 -59 -98 -100 -172 -100h-821v175h38h783c13 0 24 10 25 23v2v14v32h-647c-109 0 -199 90 -199 199v110c-7 2 -12 9 -12 18c0 10 8 18 19 18c10 0 18 -8 18 -18c0 -9 -5 -16 -12 -18v-110c0 -102 84 -186 186 -186h659v-45
c0 -5 1 -10 0 -15v-2c-1 -20 -17 -35 -37 -35h-783h-25v-149h808zM1032 217c7 -3 13 -9 13 -18c0 -10 -9 -18 -19 -18s-19 8 -19 18c0 9 5 15 13 18v542h-150v0v0v-25v-326h-659c-20 0 -37 17 -37 37v314h-149v-87h-13v100h174v-327c0 -13 12 -24 25 -24h647v313v37v0v1h174
v-555zM50 734h99v-289c0 -34 28 -62 62 -62h684v351v0v0h100v0v-535c0 -89 -73 -161 -162 -161h-783v99h783c33 0 60 26 62 58c0 0 0 -14 0 89h-684c-89 0 -161 72 -161 161v289z" />
    <glyph glyph-name="z" unicode="z" horiz-adv-x="1170" 
d="M198 284c-34 0 -61 -28 -61 -62v-23c0 -34 28 -62 62 -62h783v-99h-783c-22 0 -43 4 -62 12c-39 17 -71 48 -87 87c-8 19 -13 40 -13 62v23c0 22 5 43 13 62c16 40 48 71 87 87c18 8 39 13 60 13h624h1c34 1 61 28 61 62v127c0 34 -28 62 -62 62h-784v99h784
c22 0 43 -4 62 -12c39 -17 71 -48 87 -87c8 -19 12 -40 12 -62v-127c0 -22 -4 -43 -12 -62c-16 -39 -48 -71 -87 -87c-19 -8 -39 -12 -60 -13h-2h-622h-1zM1007 13v89h13v-102h-821c-26 0 -52 6 -77 16c-48 20 -87 59 -107 107c-10 24 -15 50 -15 76v23c0 26 5 52 15 77
c20 48 59 87 107 107c24 10 49 15 74 15h625v0c14 0 25 12 25 25v127c0 13 -12 24 -25 24h-615c-2 -7 -9 -12 -17 -12c-11 0 -19 8 -19 19c0 10 8 18 19 18c8 0 15 -5 17 -12h615c20 0 37 -17 37 -37v-127c0 -20 -16 -37 -36 -37h-1h-624c-24 -1 -48 -5 -70 -15
c-45 -19 -81 -55 -100 -100c-10 -23 -15 -47 -15 -72v-23c0 -24 5 -49 15 -71c19 -46 55 -82 100 -101c23 -9 47 -14 72 -14h808zM1004 649c11 -24 16 -50 16 -76v-127c0 -26 -5 -52 -16 -77c-20 -48 -58 -86 -107 -107c-23 -9 -48 -15 -74 -15h-2h-622h-1
c-13 0 -24 -11 -24 -25v-23c0 -13 11 -24 25 -24h614c3 7 10 12 18 12c10 0 19 -8 19 -19c0 -10 -9 -18 -19 -18c-8 0 -15 5 -18 12h-614c-21 0 -37 17 -37 37v23c0 20 16 37 36 37h1h622h2c24 1 47 6 70 15c45 19 81 55 100 100c9 23 14 47 14 72v127c0 24 -5 49 -14 71
c-19 46 -55 82 -100 101c-23 9 -48 14 -72 14h-809v-85h-12v98h821c26 0 52 -6 76 -16c49 -20 87 -59 107 -107z" />
    </font>
</defs>
</svg>
